<?xml version="1.0" standalone="no"?>
<!DOCTYPE svg PUBLIC "-//W3C//DTD SVG 1.1//EN" "http://www.w3.org/Graphics/SVG/1.1/DTD/svg11.dtd" >
<svg xmlns="http://www.w3.org/2000/svg">
<metadata></metadata>
<defs>
<font id="eewheavy" horiz-adv-x="580" >
<font-face units-per-em="1000" ascent="750" descent="-250" />
<missing-glyph horiz-adv-x="217" />
<glyph unicode="fi" horiz-adv-x="621" d="M568 29q0 -14 -7 -21.5t-27 -7.5h-92q-20 0 -27 7.5t-7 21.5v336h-167v-336q0 -14 -7 -21.5t-27 -7.5h-92q-20 0 -27 7.5t-7 21.5v336h-54q-15 0 -20 4.5t-5 20.5v49q0 19 4.5 25t21.5 11l53 13v47q0 42 17 72t43 47q26 16 65.5 24t98.5 8h4q30 0 63.5 -3.5t59.5 -8.5 q14 -3 18.5 -9.5t4.5 -15.5q0 -2 -0.5 -12t-2.5 -24l-4 -31q-2 -14 -7 -19t-22 -4q-16 1 -42.5 2t-47.5 1h-2q-47 0 -65 -9q-21 -10 -21 -41v-22h293q20 0 27 -7.5t7 -21.5v-432z" />
<glyph unicode="fl" horiz-adv-x="671" d="M627 130q15 0 22 -7t7 -27v-62q0 -20 -7 -27t-22 -7h-76q-75 0 -105 29q-17 16 -23.5 39.5t-6.5 61.5v417q-17 5 -39.5 9t-42.5 4h-5q-50 0 -69 -10.5t-19 -42.5v-17h83q14 0 20 -5t6 -24v-67q0 -19 -6 -24t-20 -5h-83v-336q0 -14 -7 -21.5t-27 -7.5h-92q-20 0 -27 7.5 t-7 21.5v336h-54q-15 0 -20 4.5t-5 20.5v49q0 19 4.5 25t21.5 11l53 13v43q0 45 14 74t46 49q23 14 60.5 23t100.5 9h7q32 0 70 -6t69 -14l94 11q20 2 27 -6.5t7 -22.5v-499q0 -11 4 -15t15 -4h32z" />
<glyph unicode="&#xd;" horiz-adv-x="217" />
<glyph unicode=" "  horiz-adv-x="217" />
<glyph unicode="&#x09;" horiz-adv-x="217" />
<glyph unicode="&#xa0;" horiz-adv-x="217" />
<glyph unicode="!" horiz-adv-x="257" d="M174 664q27 0 35.5 -6.5t6.5 -31.5l-18 -393q-1 -21 -10 -26.5t-32 -5.5h-56q-23 0 -30.5 6t-8.5 24l-19 395q-2 25 6.5 31.5t35.5 6.5h90zM125 -9q-17 0 -32.5 4t-27 13t-18.5 24t-7 37v8q0 46 25 63t60 17h3q17 0 32.5 -4t27 -13t18.5 -24.5t7 -38.5v-8q0 -22 -7 -37 t-18.5 -24t-27 -13t-32.5 -4h-3z" />
<glyph unicode="&#x22;" horiz-adv-x="543" d="M55 427zM349 427q-8 0 -13 4.5t-5 13.5l-15 261q-1 10 5 15.5t15 5.5h131q22 0 20 -21l-15 -261q0 -18 -17 -18h-106zM89 427q-8 0 -13 4.5t-5 13.5l-15 261q-1 10 5 15.5t15 5.5h131q22 0 20 -21l-15 -261q0 -18 -17 -18h-106z" />
<glyph unicode="#" horiz-adv-x="659" d="M440 31q-5 -21 -17 -26t-34 -5h-56q-23 0 -33 6t-4 30l29 118h-86l-29 -123q-5 -20 -16 -25.5t-35 -5.5h-56q-23 0 -32 6t-3 30l28 118h-77q-12 0 -16.5 4.5t-4.5 12.5q0 7 0.5 11t4.5 21l10 44q4 15 9 20t22 5h79l21 86h-78q-12 0 -16.5 4.5t-4.5 12.5q0 7 0.5 11 t4.5 21l10 44q4 15 9 20t22 5h80l34 143q5 23 16.5 27t34.5 4h55q23 0 33 -6t4 -30l-33 -138h85l34 143q5 22 15.5 26.5t35.5 4.5h57q23 0 32 -6t3 -30l-33 -138h96q21 0 21 -15q0 -8 -2.5 -22.5t-6.5 -31.5l-7 -29q-3 -11 -8 -15.5t-22 -4.5h-99l-20 -86h96q21 0 21 -14 q0 -9 -2 -21t-5 -25l-8 -35q-5 -23 -31 -23h-98zM372 358h-85l-20 -86h86z" />
<glyph unicode="$" d="M338 655q39 -2 81 -9.5t68 -16.5q17 -6 17 -21q0 -9 -6 -36l-13 -59q-3 -12 -11 -16t-27 1q-24 6 -54.5 10.5t-54.5 6.5v-119l33 -6q46 -8 76.5 -20t48.5 -32t25.5 -51t7.5 -77v-25q0 -95 -51.5 -142.5t-167.5 -51.5v-67q0 -14 -14 -14h-30q-13 0 -13 14v68 q-39 3 -84.5 10.5t-75.5 17.5q-20 6 -25.5 14.5t-3.5 24.5l13 77q3 17 11.5 21.5t24.5 -0.5q34 -10 70.5 -17.5t69.5 -9.5v132l-44 8q-44 7 -73 22t-46.5 37.5t-25 52t-7.5 65.5v32q0 87 54.5 129.5t169.5 46.5v78q0 14 13 14h30q14 0 14 -14v-78zM366 196q0 26 -13.5 38 t-42.5 19v-124q29 2 42.5 12.5t13.5 38.5v16zM220 457q0 -24 13 -34.5t48 -17.5v109q-32 -3 -46.5 -13.5t-14.5 -32.5v-11z" />
<glyph unicode="%" horiz-adv-x="929" d="M373 467q0 -40 -10 -78t-39 -65q-20 -16 -48.5 -26t-66.5 -10q-42 0 -70.5 10.5t-47.5 28.5q-27 26 -36 58t-9 72v30q0 40 9 72t36 58q19 18 47.5 28.5t70.5 10.5q38 0 66.5 -10t48.5 -26q29 -27 39 -65t10 -78v-10zM572 635q8 14 17 17.5t28 3.5h73q23 0 29.5 -9.5 t-3.5 -26.5l-369 -608q-8 -14 -17 -17.5t-28 -3.5h-73q-23 0 -29.5 9.5t3.5 26.5zM181 445q0 -33 7.5 -42.5t19.5 -9.5h2q12 0 19.5 9.5t7.5 42.5v54q0 33 -7.5 42.5t-19.5 9.5h-2q-12 0 -19.5 -9.5t-7.5 -42.5v-54zM883 170q0 -40 -10 -78t-39 -65q-20 -16 -48.5 -26 t-66.5 -10q-42 0 -70.5 10.5t-47.5 28.5q-27 26 -36 58t-9 72v30q0 40 9 72t36 58q19 18 47.5 28.5t70.5 10.5q38 0 66.5 -10t48.5 -26q29 -27 39 -65t10 -78v-10zM691 148q0 -33 7.5 -42.5t19.5 -9.5h2q12 0 19.5 9.5t7.5 42.5v54q0 33 -7.5 42.5t-19.5 9.5h-2 q-12 0 -19.5 -9.5t-7.5 -42.5v-54z" />
<glyph unicode="&#x26;" horiz-adv-x="633" d="M467 295q0 19 21 19h78q10 0 15 -4t5 -17v-17q0 -51 -7 -93t-26 -73l51 -54q19 -19 0 -33l-67 -54q-17 -13 -31 1l-55 57q-32 -17 -78 -26.5t-92 -9.5h-8q-128 0 -184.5 47t-56.5 130v9q0 62 32 102t92 60q-41 34 -63 72t-22 80v6q0 36 14.5 65t42 50t66.5 32.5t87 11.5 h9q97 0 150 -43.5t53 -115.5v-5q0 -61 -35 -106.5t-95 -74.5l96 -102q8 32 8 75v11zM291 114q17 0 36.5 3t31.5 7l-126 134q-17 -11 -27.5 -28.5t-10.5 -42.5v-2q0 -28 22 -49.5t71 -21.5h3zM344 481q0 23 -14.5 38.5t-41.5 15.5h-3q-27 0 -43 -13t-16 -37v-2q0 -19 13 -38 t42 -48l8 -8q21 14 38 37.5t17 50.5v4z" />
<glyph unicode="'" horiz-adv-x="283" d="M89 427q-8 0 -13 4.5t-5 13.5l-15 261q-1 10 5 15.5t15 5.5h131q22 0 20 -21l-15 -261q0 -18 -17 -18h-106z" />
<glyph unicode="(" horiz-adv-x="347" d="M181 657q10 11 16.5 15.5t14.5 4.5q11 0 26 -8l51 -26q17 -8 21.5 -18t-9.5 -27q-27 -36 -47.5 -76t-34 -81.5t-20.5 -82.5t-7 -79q0 -39 5 -77.5t16.5 -77.5t31 -78.5t48.5 -80.5q11 -16 9.5 -25t-14.5 -16l-62 -35q-11 -6 -20 -6q-13 0 -27 16q-72 81 -112.5 179.5 t-40.5 198.5q0 46 10 96t29.5 99.5t48.5 96.5t67 88z" />
<glyph unicode=")" horiz-adv-x="347" d="M166 657q38 -41 67 -88t48.5 -96.5t29.5 -99.5t10 -96q0 -100 -40.5 -198.5t-112.5 -179.5q-14 -16 -27 -16q-10 0 -20 6l-62 35q-13 7 -14.5 16t9.5 25q58 82 79.5 159t21.5 155q0 38 -7 79t-20.5 82.5t-34 81.5t-47.5 76q-14 17 -9.5 27t21.5 18l51 26q15 8 26 8 q8 0 14.5 -4.5t16.5 -15.5z" />
<glyph unicode="*" horiz-adv-x="422" d="M251 754q20 0 18 -18l-16 -106l82 45q9 5 17 2.5t11 -12.5l22 -66q3 -10 0.5 -15t-14.5 -9l-97 -24l75 -63q11 -9 10 -19t-10 -17l-61 -42q-20 -12 -30 6l-47 81l-47 -81q-10 -18 -30 -6l-61 42q-9 7 -10 16.5t10 19.5l75 63l-97 24q-12 4 -14.5 9t0.5 15l22 66 q3 10 11 12.5t17 -2.5l82 -45l-16 106q-2 18 18 18h80z" />
<glyph unicode="+" d="M367 189v-133q0 -24 -10 -30t-31 -6h-72q-21 0 -31 6t-10 30v133h-129q-20 0 -27.5 8t-7.5 28v62q0 21 7.5 30.5t27.5 9.5h129v133q0 24 10 30t31 6h72q21 0 31 -6t10 -30v-133h129q20 0 27.5 -9.5t7.5 -30.5v-62q0 -20 -7.5 -28t-27.5 -8h-129z" />
<glyph unicode="," horiz-adv-x="248" d="M128 165q46 0 65 -22t19 -67v-13q0 -21 -6.5 -49.5t-19.5 -60.5t-33.5 -66t-47.5 -65q-9 -11 -20 -11q-6 0 -16 5l-50 30q-9 5 -9 13t6 16q11 14 20.5 28.5t19.5 29.5q8 11 13 21.5t5 19.5q0 8 -8 13l-10 7q-14 11 -19.5 24.5t-5.5 38.5v28q0 38 19 59t64 21h14z" />
<glyph unicode="-" horiz-adv-x="364" d="M72 188q-25 0 -32.5 7t-7.5 25v75q0 18 8.5 25t31.5 7h220q23 0 31.5 -7t8.5 -25v-75q0 -18 -7.5 -25t-32.5 -7h-220z" />
<glyph unicode="." horiz-adv-x="243" d="M207 74q0 -46 -21 -64.5t-59 -18.5h-11q-38 0 -59 18.5t-21 64.5v10q0 46 21 63.5t59 17.5h11q38 0 59 -17.5t21 -63.5v-10z" />
<glyph unicode="/" horiz-adv-x="446" d="M196 12q-7 -20 -14.5 -27.5t-30.5 -7.5h-97q-21 0 -25 9.5t2 26.5l219 638q7 20 14.5 27.5t30.5 7.5h97q21 0 25 -9.5t-2 -26.5z" />
<glyph unicode="0" d="M547 280q0 -66 -13 -119.5t-43 -91t-79 -58t-122 -20.5q-72 0 -121.5 20.5t-79.5 58t-43 91t-13 119.5v87q0 66 13 119.5t43 91t79.5 58t121.5 20.5q73 0 122 -20.5t79 -58t43 -91t13 -119.5v-87zM376 350q0 46 -2.5 78.5t-11.5 53t-25.5 30t-44.5 9.5h-4 q-28 0 -44.5 -10t-25.5 -30.5t-11.5 -52.5t-2.5 -78v-53q0 -46 2.5 -78t11.5 -52.5t25.5 -30.5t44.5 -10h4q28 0 44.5 9.5t25.5 30t11.5 53t2.5 78.5v53z" />
<glyph unicode="1" d="M128 0q-20 0 -27.5 7t-7.5 27v59q0 20 7.5 28t27.5 8h106v352h-5l-86 -38q-14 -6 -24.5 -6t-17.5 13l-33 65q-15 29 14 43l154 76q15 8 27.5 10.5t32.5 2.5h71q20 0 28 -6.5t8 -29.5v-482h90q20 0 27.5 -8t7.5 -28v-59q0 -20 -7.5 -27t-27.5 -7h-365z" />
<glyph unicode="2" d="M273 519q-29 0 -66 -7t-72 -19q-25 -8 -31 15l-18 72q-4 14 -1 23t17 14q42 17 96 28t109 11h3q97 0 152 -42t55 -133v-12q0 -40 -8.5 -70t-25 -54t-42 -42.5t-58.5 -34.5l-52 -25q-36 -17 -58 -29.5t-34 -24t-16.5 -23t-4.5 -26.5v-11h262q23 0 28.5 -6.5t5.5 -26.5v-66 q0 -16 -6.5 -23t-27.5 -7h-386q-20 0 -27 6.5t-7 23.5v64q0 49 8.5 86t27 65.5t48 50.5t71.5 41l43 19q26 12 43.5 22t28 21t14.5 24t4 30v8q0 58 -71 58h-4z" />
<glyph unicode="3" d="M200 272q-20 0 -25.5 7t-5.5 25v63q0 18 5.5 25t25.5 7h30q64 0 86 19q18 16 18 49v7q0 28 -17.5 40t-47.5 12h-7q-27 0 -60.5 -7.5t-77.5 -22.5q-15 -5 -23 0t-11 17l-15 62q-1 4 -2 9t-1 10q0 8 4.5 14t16.5 11q18 8 41.5 14.5t49 11.5t52 8t49.5 3h9 q101 0 153.5 -39.5t52.5 -124.5v-6q0 -48 -19 -87t-63 -52v-3q52 -13 77 -47.5t25 -95.5v-15q0 -97 -62 -146t-186 -49h-5q-26 0 -53 2.5t-53.5 7t-49.5 10t-39 11.5q-22 7 -22 27q0 5 2 13.5t5 18.5l14 47q5 16 12 19.5t23 -1.5q40 -13 79 -19.5t72 -6.5h3q49 0 71.5 15.5 t22.5 55.5v12q0 38 -21 53.5t-75 15.5h-58z" />
<glyph unicode="4" d="M311 264v225h-1l-139 -225h140zM473 138v-105q0 -23 -7.5 -28t-28.5 -5h-88q-22 0 -30 5t-8 28v105h-255q-20 0 -26.5 6.5t-6.5 26.5v24q0 15 1 25.5t3 19.5t6.5 17.5t12.5 20.5l209 337q13 20 24 26t32 6h121q26 0 33.5 -8t7.5 -34v-341h52q19 0 23.5 -5t4.5 -22v-72 q0 -17 -4.5 -22t-23.5 -5h-52z" />
<glyph unicode="5" d="M246 514q-14 0 -14 -13l-3 -93q20 7 46.5 11t52.5 4h10q96 0 141 -44q26 -25 37.5 -62.5t11.5 -96.5v-14q0 -61 -17 -101t-47 -65t-78 -37t-108 -12h-10q-22 0 -47.5 3t-52 7.5t-52 11t-46.5 14.5q-20 7 -20 23q0 5 1.5 11.5t3.5 15.5l14 51q6 23 16 26.5t24 -1.5 q35 -13 76.5 -22t76.5 -9h10q44 0 70 18q12 8 18 23t6 43v7q0 22 -4.5 37.5t-16.5 26.5q-19 17 -57 17h-6q-24 0 -56 -6.5t-61 -17.5q-5 -2 -10 -3.5t-10 -1.5t-11.5 3t-11.5 6l-32 21q-8 5 -11.5 10.5t-3.5 15.5v9.5t2 30.5l13 256q1 17 8.5 23.5t25.5 6.5h326 q19 0 25.5 -5t6.5 -24v-77q0 -16 -7 -21.5t-27 -5.5h-202z" />
<glyph unicode="6" d="M296 289q-24 0 -45 -4t-38 -11v-25q0 -40 5 -65t15.5 -39.5t26.5 -19.5t39 -5h3q40 0 57 18.5t17 57.5v21q0 39 -16.5 55.5t-56.5 16.5h-7zM475 630q21 -8 21 -24q0 -5 -1 -10.5t-3 -11.5l-16 -59q-5 -17 -12.5 -20t-24.5 2q-23 8 -49 12.5t-53 4.5h-7q-51 0 -81.5 -30 t-34.5 -96q23 11 54.5 18t65.5 7h11q95 0 143 -44.5t48 -150.5v-18q0 -109 -60 -164t-167 -55h-11q-74 0 -122.5 20.5t-77 59.5t-39.5 95t-11 127v26q0 179 75 261q34 38 83 57t109 19h7q40 0 83.5 -7.5t69.5 -18.5z" />
<glyph unicode="7" d="M98 514q-21 0 -26.5 7t-5.5 27v65q0 20 5.5 27t26.5 7h398q20 0 28 -5t8 -23v-23q0 -12 -1.5 -22.5t-5.5 -22.5t-10 -27t-16 -36l-219 -461q-8 -16 -17.5 -21.5t-34.5 -5.5h-101q-23 0 -27 10t3 23l246 481h-251z" />
<glyph unicode="8" d="M57 481q0 80 62 127.5t172 47.5h11q104 0 161.5 -41.5t57.5 -116.5v-9q0 -44 -21.5 -82t-64.5 -60q54 -21 80.5 -62t26.5 -89v-7q0 -102 -63.5 -150t-176.5 -48h-10q-69 0 -117 13t-78.5 37t-44 56.5t-13.5 71.5v8q0 49 28 90t73 57q-45 28 -64 64t-19 84v9zM205 189 q0 -37 25 -54.5t64 -17.5h4q42 0 60.5 14t18.5 41v5q0 28 -24 44t-69 33l-44 16q-35 -27 -35 -72v-9zM361 471q0 32 -20.5 48t-49.5 16h-5q-30 0 -49 -16t-19 -38v-3q0 -25 16.5 -44t58.5 -35l30 -11q16 13 27 35t11 41v7z" />
<glyph unicode="9" d="M284 354q47 0 82 18v14q0 42 -4 69.5t-13 43t-24 21.5t-37 6h-9q-35 0 -55 -19t-20 -62v-9q0 -45 18 -63.5t54 -18.5h8zM95 20q-17 6 -17 23q0 6 3 18l16 64q4 14 11.5 18t22.5 -1q25 -8 59.5 -15t66.5 -7h3q56 0 78.5 30.5t25.5 88.5q-24 -10 -53 -15t-55 -5h-11 q-108 0 -154.5 54t-46.5 160v14q0 95 57 152t172 57h14q69 0 116 -17.5t75.5 -53.5t41 -92.5t12.5 -134.5v-24q0 -110 -22 -177.5t-59.5 -104.5t-86.5 -49t-102 -12h-1q-44 0 -90.5 9t-75.5 20z" />
<glyph unicode=":" horiz-adv-x="243" d="M36 0zM207 74q0 -46 -21 -64.5t-59 -18.5h-11q-38 0 -59 18.5t-21 64.5v10q0 46 21 63.5t59 17.5h11q38 0 59 -17.5t21 -63.5v-10zM207 455q0 -46 -21 -64.5t-59 -18.5h-11q-38 0 -59 18.5t-21 64.5v10q0 46 21 63.5t59 17.5h11q38 0 59 -17.5t21 -63.5v-10z" />
<glyph unicode=";" horiz-adv-x="248" d="M10 0zM128 165q46 0 65 -22t19 -67v-13q0 -21 -6.5 -49.5t-19.5 -60.5t-33.5 -66t-47.5 -65q-9 -11 -20 -11q-6 0 -16 5l-50 30q-9 5 -9 13t6 16q11 14 20.5 28.5t19.5 29.5q8 11 13 21.5t5 19.5q0 8 -8 13l-10 7q-14 11 -19.5 24.5t-5.5 38.5v28q0 38 19 59t64 21h14z M211 455q0 -46 -21 -64.5t-59 -18.5h-11q-38 0 -59 18.5t-21 64.5v10q0 46 21 63.5t59 17.5h11q38 0 59 -17.5t21 -63.5v-10z" />
<glyph unicode="&#x3c;" d="M502 128q25 -13 25 -27q0 -6 -3.5 -14.5t-18.5 -34.5l-20 -36q-10 -19 -24 -19q-10 0 -20 6l-365 197q-14 8 -19 15.5t-5 25.5v38q0 18 5 25.5t19 15.5l365 197q12 6 20 6q14 0 24 -19l23 -41q12 -22 15.5 -29.5t3.5 -12.5q0 -16 -25 -29l-250 -132z" />
<glyph unicode="=" d="M496 450q20 0 27.5 -9.5t7.5 -30.5v-62q0 -20 -7.5 -28t-27.5 -8h-412q-20 0 -27.5 8t-7.5 28v62q0 21 7.5 30.5t27.5 9.5h412zM496 204q20 0 27.5 -9.5t7.5 -30.5v-62q0 -20 -7.5 -28t-27.5 -8h-412q-20 0 -27.5 8t-7.5 28v62q0 21 7.5 30.5t27.5 9.5h412z" />
<glyph unicode="&#x3e;" d="M327 260l-250 132q-25 13 -25 29q0 5 3.5 12.5t15.5 29.5l23 41q10 19 24 19q8 0 20 -6l365 -197q14 -8 19 -15.5t5 -25.5v-38q0 -18 -5 -25.5t-19 -15.5l-365 -197q-11 -6 -20 -6q-14 0 -24 19l-20 36q-15 26 -18.5 34.5t-3.5 14.5q0 14 25 27z" />
<glyph unicode="?" horiz-adv-x="467" d="M242 212q0 -18 -23 -18h-79q-23 0 -23 22v23q0 29 2.5 49t10 35t22 27.5t37.5 26.5l25 15q34 20 44 36t10 40v3q0 55 -66 55h-2q-27 0 -59.5 -8t-61.5 -19q-12 -5 -19.5 -1.5t-12.5 17.5l-19 59q-2 5 -3 10.5t-1 10.5q0 16 22 26q15 7 36 13.5t44 11t47 7.5t46 3h7 q100 0 151.5 -39.5t51.5 -119.5v-7q0 -56 -19.5 -93t-70.5 -68l-30 -18q-38 -23 -52.5 -39.5t-14.5 -45.5v-14zM180 -9q-17 0 -32.5 4t-27 13t-18.5 24t-7 37v8q0 46 25 63t60 17h3q17 0 32.5 -4t27 -13t18.5 -24.5t7 -38.5v-8q0 -22 -7 -37t-18.5 -24t-27 -13t-32.5 -4h-3z " />
<glyph unicode="@" horiz-adv-x="816" d="M776 379q0 -59 -15 -104t-41 -76.5t-62.5 -47.5t-78.5 -16q-45 0 -76.5 13.5t-45.5 36.5h-3q-13 -16 -36 -25.5t-52 -9.5h-2q-60 0 -86 28t-26 79q0 24 3.5 56t8.5 58q12 68 42 97.5t84 29.5q33 0 54.5 -10t35.5 -29l7 15q3 7 7 10t15 3h55q11 0 16 -3.5t3 -14.5 l-22 -168q-2 -17 -3 -27.5t-1 -18.5q0 -17 6.5 -28t26.5 -11q32 0 51.5 38.5t19.5 110.5q0 106 -59 160t-162 54q-59 0 -107 -19t-82.5 -55.5t-53.5 -90t-19 -121.5q0 -107 60.5 -165t186.5 -58q54 0 104.5 6t88.5 15q14 3 18.5 -0.5t6.5 -11.5l10 -49q2 -13 -1 -18t-16 -10 q-42 -14 -101.5 -23t-119.5 -9q-182 0 -276.5 83.5t-94.5 232.5q0 94 31 168t85 124t128 76.5t161 26.5q69 0 128.5 -19.5t104 -58t69.5 -95t25 -129.5zM446 346q2 17 3 24.5t1 13.5q0 26 -28 26q-17 0 -26.5 -10.5t-14.5 -35.5q-4 -20 -7.5 -48t-3.5 -47q0 -15 5.5 -25 t22.5 -10t26 10.5t14 42.5z" />
<glyph unicode="A" horiz-adv-x="611" d="M370 246q-6 24 -13.5 52t-15.5 58l-16 60t-15 56h-11q-8 -26 -16 -56t-15.5 -60t-15 -58t-13.5 -52h131zM475 0q-15 0 -24.5 2t-15 5.5t-8 10t-5.5 15.5l-23 83h-189l-23 -83q-3 -9 -5.5 -15.5t-8 -10.5t-15 -5.5t-24.5 -1.5h-87q-17 0 -25.5 4.5t-8.5 17.5q0 5 3 16 t11 39q42 141 80.5 270.5t80.5 254.5q8 25 23.5 35t47.5 10h91q32 0 47.5 -10t23.5 -35q42 -125 81.5 -254.5t81.5 -270.5q8 -28 11 -39t3 -16q0 -13 -8.5 -17.5t-25.5 -4.5h-89z" />
<glyph unicode="B" horiz-adv-x="586" d="M261 656q74 0 123.5 -11t79.5 -35q26 -21 39 -49.5t13 -67.5v-9q0 -49 -19.5 -82.5t-52.5 -50.5v-3q48 -12 77 -46t29 -94v-13q0 -87 -46 -133q-60 -62 -200 -62h-28q-56 0 -103.5 1.5t-68.5 5.5q-23 4 -31.5 14t-8.5 30v558q0 22 7.5 30t27.5 10q33 4 72 5.5t80 1.5h10z M232 153q0 -16 15 -17q8 -1 17.5 -1h19.5h14q26 0 40.5 4t23.5 12q10 8 13.5 21t3.5 30v8q0 35 -18 49q-10 8 -27 11.5t-44 3.5h-58v-121zM275 521h-19t-15 -1q-9 -2 -9 -11v-116h45q38 0 54 13t16 47v12q0 29 -12 41q-14 15 -51 15h-9z" />
<glyph unicode="C" horiz-adv-x="561" d="M311 -9q-145 0 -208 67q-31 32 -44 81.5t-13 122.5v123q0 73 13.5 122t44.5 81q32 35 83 51.5t125 16.5h7q49 0 102.5 -11.5t93.5 -32.5q11 -6 14 -14t-2 -22l-33 -84q-6 -15 -17 -15q-9 0 -19 5q-32 16 -64.5 25t-67.5 9h-4q-64 0 -86 -36q-11 -19 -15 -47.5t-4 -71.5 v-71q0 -46 5.5 -77t22.5 -51q14 -15 36.5 -23t57.5 -8h4q27 0 62.5 8.5t61.5 19.5q4 2 7.5 3t8.5 1q6 0 10.5 -4.5t7.5 -16.5l17 -72q3 -12 3 -19q0 -9 -6 -15t-24 -13q-35 -14 -80.5 -23t-89.5 -9h-10z" />
<glyph unicode="D" horiz-adv-x="637" d="M249 510q-17 -1 -17 -17v-332q0 -13 4 -17t12 -5q10 -1 23.5 -1h21.5h5q59 0 88 29q38 38 38 139v41q0 102 -34 137q-16 17 -39 22.5t-54 5.5h-5q-9 0 -22 -0.5t-21 -1.5zM240 0q-38 0 -78 1t-60 3q-38 4 -38 39v546q0 30 9.5 40t35.5 13q30 3 69.5 5t87.5 2h14 q88 0 147.5 -16.5t97.5 -53.5q35 -35 52.5 -89.5t17.5 -133.5v-58q0 -84 -17 -137t-54 -88q-39 -38 -102.5 -55.5t-160.5 -17.5h-21z" />
<glyph unicode="E" horiz-adv-x="527" d="M210 266q0 -31 1.5 -60t4.5 -52q2 -11 7 -14.5t15 -3.5h213q23 0 28.5 -5.5t5.5 -25.5v-74q0 -18 -5.5 -24.5t-28.5 -6.5h-241q-37 0 -64 4.5t-45.5 16.5t-28.5 32t-13 52q-5 46 -6 94.5t-1 98.5v61q0 32 1 75.5t5 85.5q3 39 13 63.5t28 38.5t46 19.5t68 5.5h239 q24 0 28.5 -5.5t4.5 -25.5v-75q0 -18 -4.5 -24t-28.5 -6h-212q-14 0 -19 -4.5t-6 -15.5q-1 -15 -1.5 -44t-1.5 -55h211q19 0 25.5 -5.5t6.5 -23.5v-70q0 -16 -6.5 -21.5t-25.5 -5.5h-213z" />
<glyph unicode="F" horiz-adv-x="513" d="M230 261v-229q0 -21 -7 -26.5t-30 -5.5h-94q-23 0 -30 5.5t-7 26.5v498q0 18 1 31t4 23t8.5 18.5t14.5 18.5q24 26 91 26h274q23 0 28.5 -7.5t5.5 -24.5v-72q0 -19 -7 -25.5t-27 -6.5h-210q-15 0 -15 -15v-109h199q20 0 25.5 -5.5t5.5 -25.5v-65q0 -18 -5.5 -24t-25.5 -6 h-199z" />
<glyph unicode="G" horiz-adv-x="622" d="M46 381q0 74 16 125t48 84q33 34 84 50t129 16h9q28 0 58 -4t58 -10.5t52.5 -15t42.5 -18.5q10 -5 13.5 -10t3.5 -11q0 -5 -1.5 -11.5t-6.5 -18.5l-26 -68q-10 -25 -32 -13q-38 20 -75 30t-80 10h-5q-68 0 -94 -37q-13 -19 -18 -47t-5 -73v-76q0 -51 6 -80.5t21 -46.5 q12 -14 31.5 -19.5t50.5 -5.5h6q14 0 27.5 1t21.5 3q11 2 15 7.5t4 17.5v92h-52q-18 0 -24 5t-6 22v67q0 19 6 25t23 6h190q18 0 24.5 -8t6.5 -25v-269q0 -19 -6.5 -29.5t-23.5 -17.5q-21 -9 -47 -15.5t-53 -11.5t-53.5 -7.5t-49.5 -2.5h-13q-81 0 -133 14t-84 46 q-34 33 -46.5 85t-12.5 130v115z" />
<glyph unicode="H" horiz-adv-x="657" d="M593 31q0 -21 -6 -26t-29 -5h-97q-23 0 -29.5 5t-6.5 26v226h-193v-226q0 -21 -6 -26t-29 -5h-99q-23 0 -28.5 5t-5.5 26v585q0 21 6 26t29 5h98q23 0 29 -5t6 -26v-223h193v223q0 21 6 26t29 5h98q23 0 29 -5t6 -26v-585z" />
<glyph unicode="I" horiz-adv-x="300" d="M234 31q0 -21 -6 -26t-29 -5h-98q-23 0 -29 5t-6 26v585q0 21 6 26t29 5h98q23 0 29 -5t6 -26v-585z" />
<glyph unicode="J" horiz-adv-x="375" d="M319 213q0 -39 -2 -68.5t-7 -51t-15 -37t-26 -26.5q-29 -20 -67.5 -25t-89.5 -5h-65q-18 0 -25.5 7t-7.5 27v68q0 23 7.5 29.5t27.5 6.5h48q14 0 25.5 1t18.5 8t8.5 21t1.5 50v398q0 21 6.5 26t29.5 5h98q23 0 28.5 -5t5.5 -26v-403z" />
<glyph unicode="K" horiz-adv-x="595" d="M232 31q0 -21 -6 -26t-29 -5h-98q-23 0 -29 5t-6 26v585q0 21 6 26t29 5h98q23 0 29 -5t6 -26v-218h5q7 0 10 3.5t8 11.5l136 209q9 14 19.5 19.5t30.5 5.5h110q51 0 25 -38l-182 -252q-6 -8 -9.5 -12.5t-3.5 -9.5t4 -10t9 -13l187 -281q19 -31 -27 -31h-106 q-26 0 -36.5 4.5t-18.5 18.5l-135 224q-6 11 -10 14t-10 3h-6v-233z" />
<glyph unicode="L" horiz-adv-x="475" d="M230 159q0 -11 5 -17t19 -6h160q24 0 29.5 -6t5.5 -26v-72q0 -19 -5.5 -25.5t-29.5 -6.5h-242q-62 0 -86 24.5t-24 83.5v508q0 21 6 26t29 5h99q23 0 28.5 -5t5.5 -26v-457z" />
<glyph unicode="M" horiz-adv-x="811" d="M587 404q-28 -89 -52.5 -164.5t-44.5 -135.5q-8 -23 -20 -29t-36 -6h-61q-24 0 -36 6t-20 29q-19 55 -44.5 134t-49.5 166h-4q-1 -48 -2 -97.5t-1.5 -97.5t-0.5 -92.5v-82.5q0 -21 -7 -27.5t-32 -6.5h-81q-25 0 -32.5 7t-7.5 27q0 67 2.5 139t5.5 145t6.5 143.5 t7.5 133.5q2 32 12.5 42t37.5 10h96q35 0 51 -10t24 -38q16 -55 29 -102t25 -89.5t23.5 -82t23.5 -79.5h7q13 40 25 80t25 82.5t26.5 89.5t29.5 101q8 28 24 38t51 10h97q27 0 37.5 -10t12.5 -42q4 -63 7.5 -133.5t6.5 -143.5t5.5 -145t2.5 -139q0 -20 -7.5 -27t-32.5 -7 h-82q-25 0 -32 6.5t-7 27.5v82.5t-0.5 92.5t-1.5 97.5t-2 97.5h-4z" />
<glyph unicode="N" horiz-adv-x="649" d="M222 337h-2v-303q0 -21 -7.5 -27.5t-27.5 -6.5h-84q-20 0 -28.5 6.5t-8.5 27.5v580q0 20 8 26.5t27 6.5h44q24 0 38 -5.5t26 -22.5l220 -328h2v322q0 21 8.5 27.5t28.5 6.5h84q20 0 27.5 -6.5t7.5 -27.5v-580q0 -20 -8 -26.5t-27 -6.5h-44q-24 0 -38 5.5t-26 22.5z" />
<glyph unicode="O" horiz-adv-x="636" d="M419 342q0 56 -5 94t-23 56q-12 12 -27.5 18t-38.5 6h-14q-23 0 -38.5 -6t-27.5 -18q-18 -18 -23 -56t-5 -94v-37q0 -56 5 -94t23 -56q12 -12 27.5 -18t38.5 -6h14q23 0 38.5 6t27.5 18q18 18 23 56t5 94v37zM590 285q0 -87 -18.5 -148.5t-65.5 -98.5q-29 -23 -74 -35 t-110 -12h-8q-65 0 -110 12t-74 35q-47 37 -65.5 98.5t-18.5 148.5v77q0 87 18.5 148.5t65.5 98.5q29 23 74 35t110 12h8q65 0 110 -12t74 -35q47 -37 65.5 -98.5t18.5 -148.5v-77z" />
<glyph unicode="P" horiz-adv-x="567" d="M284 521q-11 0 -23 -0.5t-21 -1.5q-8 -1 -8 -12v-158h52q29 0 46.5 4.5t27.5 12.5q18 15 18 59v25q0 37 -17 53q-18 18 -62 18h-13zM232 31q0 -18 -9 -24.5t-26 -6.5h-98q-18 0 -26.5 6.5t-8.5 24.5v575q0 25 9 34t35 11q32 3 74.5 4t94.5 1h12q75 0 127.5 -13.5 t83.5 -45.5q23 -23 34 -57.5t11 -87.5v-34q0 -112 -63 -158q-35 -26 -84.5 -37t-117.5 -11h-48v-181z" />
<glyph unicode="Q" horiz-adv-x="636" d="M590 285q0 -87 -18.5 -148.5t-65.5 -98.5q-35 -27 -92 -39q28 -26 61 -51t59 -43q17 -12 17 -23q0 -5 -3 -9t-11 -12l-61 -55q-11 -10 -23 -10t-24 9q-22 16 -45 38t-44 47.5t-40 52t-33 50.5q-43 4 -79 15t-59 30q-47 37 -65 98.5t-18 148.5v77q0 87 18.5 148.5 t65.5 98.5q29 23 73.5 35t109.5 12h10q65 0 109.5 -12t73.5 -35q47 -37 65.5 -98.5t18.5 -148.5v-77zM419 342q0 56 -5 94t-23 56q-12 12 -27.5 18t-38.5 6h-14q-23 0 -38.5 -6t-27.5 -18q-18 -18 -23 -56t-5 -94v-37q0 -56 5 -94t23 -56q12 -12 27.5 -18t38.5 -6h14 q23 0 38.5 6t27.5 18q18 18 23 56t5 94v37z" />
<glyph unicode="R" horiz-adv-x="591" d="M232 31q0 -21 -6 -26t-29 -5h-99q-23 0 -28.5 5t-5.5 26v578q0 21 8 29.5t26 10.5q28 3 71 5t95 2h21q78 0 130 -13.5t84 -44.5q23 -23 35.5 -55.5t12.5 -80.5v-21q0 -51 -10 -86t-33 -61q-29 -32 -76 -47l127 -214q8 -14 3 -23.5t-27 -9.5h-98q-26 0 -36 5.5t-18 22.5 l-100 192q-3 6 -6.5 8.5t-11.5 2.5h-29v-200zM276 520h-15t-13 -1q-8 -1 -12 -4.5t-4 -13.5v-137h65q26 0 40.5 3.5t23.5 12.5q17 17 17 59v13q0 18 -3.5 30t-11.5 20q-17 18 -68 18h-19z" />
<glyph unicode="S" horiz-adv-x="542" d="M255 -9q-21 0 -46 2t-50 6t-47.5 9t-39.5 11q-20 7 -25 16.5t-3 23.5l13 81q4 31 35 20q43 -15 85.5 -23t74.5 -8h5q47 0 65.5 13t18.5 44v10q0 31 -17.5 42t-61.5 19l-68 13q-44 8 -73 23t-46.5 37t-25 51t-7.5 65v28q0 84 45 128q29 28 76.5 41t122.5 13h7 q45 0 92.5 -7.5t77.5 -18.5q16 -6 20 -15.5t-1 -29.5l-17 -73q-6 -27 -37 -17q-34 11 -66 16t-66 5h-4q-50 0 -68.5 -11.5t-18.5 -38.5v-9q0 -24 13.5 -34t51.5 -18l76 -15q43 -9 73.5 -21t49 -32t27 -50.5t8.5 -76.5v-24q0 -99 -55 -147t-182 -48h-12z" />
<glyph unicode="T" horiz-adv-x="523" d="M46 511q-20 0 -26 6t-6 24v75q0 20 6 25.5t26 5.5h431q20 0 26 -5.5t6 -25.5v-75q0 -18 -6 -24t-26 -6h-131v-479q0 -19 -7 -25.5t-30 -6.5h-95q-23 0 -30 6.5t-7 25.5v479h-131z" />
<glyph unicode="U" horiz-adv-x="630" d="M408 616q0 21 5.5 26t29.5 5h98q24 0 29.5 -5t5.5 -26v-390q0 -66 -13.5 -107t-47.5 -73q-61 -55 -194 -55h-12q-70 0 -117.5 14t-77.5 41q-34 32 -47 76t-13 104v390q0 21 5.5 26t29.5 5h98q24 0 30 -5t6 -26v-385q0 -30 4.5 -49.5t15.5 -30.5q20 -20 70 -20h5 q50 0 70 20q11 11 15.5 30.5t4.5 49.5v385z" />
<glyph unicode="V" horiz-adv-x="578" d="M292 188q12 40 26 92t28.5 109.5t28 116.5t24.5 113q5 20 12 24t29 4h95q23 0 29.5 -5.5t3.5 -20.5q-14 -69 -33.5 -147.5t-42 -156.5t-47 -151t-48.5 -131q-7 -17 -19 -26t-40 -9h-98q-28 0 -40 9t-19 26q-24 58 -48.5 131t-47 151t-42.5 156.5t-33 147.5 q-3 15 3.5 20.5t29.5 5.5h96q22 0 29 -4t12 -24q11 -54 24.5 -113t28 -116.5t28.5 -109.5t26 -92h5z" />
<glyph unicode="W" horiz-adv-x="832" d="M413 363q-18 -90 -38.5 -175.5t-38.5 -154.5q-5 -17 -16.5 -25t-40.5 -8h-90q-28 0 -39 7t-16 24q-35 139 -67.5 291t-57.5 299q-2 14 4.5 20t26.5 6h99q18 0 27.5 -4.5t11.5 -21.5q20 -135 36.5 -242t30.5 -199h4q10 50 21.5 104t22.5 106.5t21 101.5t19 90 q3 14 12.5 20t29.5 6h82q20 0 29.5 -6t12.5 -20q9 -41 19 -90t21 -101.5t22 -106.5t22 -104h4q14 92 30 199t37 242q2 17 11.5 21.5t27.5 4.5h99q20 0 26.5 -6t4.5 -20q-26 -147 -58 -299t-67 -291q-5 -17 -16 -24t-39 -7h-90q-29 0 -40.5 8t-16.5 25q-18 69 -38.5 154.5 t-38.5 175.5h-6z" />
<glyph unicode="X" horiz-adv-x="593" d="M297 251h-6l-94 -221q-8 -18 -19 -24t-34 -6h-100q-23 0 -25.5 11.5t5.5 25.5l135 267q4 7 6.5 13.5t2.5 11.5q0 8 -7 22l-137 269q-6 11 0 19t26 8h101q21 0 31 -5t15 -17l94 -222h6l99 222q5 12 14.5 17t31.5 5h101q22 0 27 -7.5t-1 -19.5l-137 -269q-7 -14 -7 -22 q0 -5 2.5 -11t6.5 -14l135 -267q8 -14 5.5 -25.5t-25.5 -11.5h-100q-23 0 -34 5.5t-19 24.5z" />
<glyph unicode="Y" horiz-adv-x="534" d="M215 0q-19 0 -25.5 6.5t-6.5 24.5v160q-22 42 -46 93.5t-47.5 107.5t-43.5 112.5t-35 109.5q-9 33 19 33h105q22 0 30 -2.5t13 -21.5q8 -32 19 -69.5t23 -75.5t24 -74t23 -65h5q11 29 23 65t23.5 74t22 75.5t18.5 69.5q5 19 13 21.5t30 2.5h102q28 0 19 -33 q-15 -53 -35 -109.5t-43 -112t-47 -107t-46 -93.5v-161q0 -18 -6.5 -24.5t-25.5 -6.5h-105z" />
<glyph unicode="Z" horiz-adv-x="526" d="M461 136q20 0 27.5 -6.5t7.5 -25.5v-72q0 -20 -7.5 -26t-27.5 -6h-397q-23 0 -30.5 7t-7.5 27v30q0 17 3 26.5t13 25.5l238 395h-207q-20 0 -27.5 6.5t-7.5 24.5v73q0 20 7.5 26t27.5 6h388q18 0 25 -5.5t7 -23.5v-34q0 -16 -4 -27.5t-16 -31.5l-244 -389h232z" />
<glyph unicode="[" horiz-adv-x="362" d="M298 50q18 0 23.5 -6.5t5.5 -21.5v-81q0 -17 -6 -22t-24 -5h-202q-17 0 -23.5 5t-6.5 22v709q0 17 6.5 22t23.5 5h202q18 0 24 -5t6 -22v-81q0 -15 -5.5 -21.5t-23.5 -6.5h-77v-491h77z" />
<glyph unicode="\" horiz-adv-x="446" d="M25 0zM250.012 12q7 -20 14.499 -27.5q7.5 -7.5 30.498 -7.5h96.9941q20.999 0 24.999 9.5t-2 26.5l-218.986 638q-7 20 -14.499 27.5q-7.5 7.5 -30.499 7.5h-96.9941q-20.998 0 -24.998 -9.5t2 -26.5z" />
<glyph unicode="]" horiz-adv-x="362" d="M141 50v491h-77q-18 0 -23.5 6.5t-5.5 21.5v81q0 17 6 22t24 5h202q17 0 23.5 -5t6.5 -22v-709q0 -17 -6.5 -22t-23.5 -5h-202q-18 0 -24 5t-6 22v81q0 15 5.5 21.5t23.5 6.5h77z" />
<glyph unicode="^" d="M317 583q10 0 16.5 -1t12 -4t10.5 -8.5t12 -14.5l130 -179q16 -22 20 -31.5t4 -15.5q0 -12 -16 -23l-55 -37q-13 -8 -21 -8q-12 0 -22 14l-114 146h-8l-114 -146q-5 -6 -10 -10t-12 -4q-8 0 -21 8l-55 37q-16 11 -16 23q0 6 4 15.5t20 31.5l130 179q7 9 12 14.5t10.5 8.5 t12 4t16.5 1h54z" />
<glyph unicode="_" horiz-adv-x="565" d="M72 -161q-25 0 -32.5 7t-7.5 25v59q0 18 8.5 25t31.5 7h421q23 0 31.5 -7t8.5 -25v-59q0 -18 -7.5 -25t-32.5 -7h-421z" />
<glyph unicode="`" horiz-adv-x="629" d="M327 622q9 -6 9 -16q0 -9 -11 -23l-30 -35q-8 -8 -12 -11t-12 -3q-10 0 -20 7l-158 108q-8 6 -12 11t-4 13q0 9 6 17l48 62q9 13 20 13q9 0 19 -9z" />
<glyph unicode="a" horiz-adv-x="508" d="M338 41q-15 -23 -49 -36.5t-82 -13.5h-15q-75 0 -118.5 39t-43.5 115v11q0 84 48 116t149 32h7q20 0 39.5 -1t30.5 -3v21q0 15 -3 25.5t-14 18.5q-9 6 -22 8.5t-38 2.5q-26 0 -56.5 -4.5t-59.5 -12.5q-19 -5 -25.5 0.5t-8.5 18.5l-8 53q-1 5 -1.5 11t-0.5 9 q0 10 4.5 15.5t19.5 10.5q32 9 76 15.5t95 6.5q60 0 100 -12t64 -37q38 -39 38 -125v-297q0 -15 -7 -21.5t-27 -6.5h-47q-17 0 -24.5 4.5t-12.5 18.5l-6 18h-2zM304 197q-8 2 -22.5 2.5t-25.5 0.5h-11q-35 0 -50 -8.5t-15 -36.5v-4q0 -28 15 -37t41 -9h7q17 0 28.5 4.5 t18.5 10.5q8 8 11 18.5t3 30.5v28z" />
<glyph unicode="b" horiz-adv-x="536" d="M211 177q0 -34 14 -48q8 -8 19 -10.5t26 -2.5h9q20 0 31 5t18 15q8 13 10 32.5t2 54.5v43q0 35 -1.5 57.5t-11.5 33.5q-8 9 -19 12.5t-31 3.5h-4q-34 0 -49 -15q-8 -8 -10.5 -20.5t-2.5 -32.5v-128zM213 472q44 27 114 27h9q42 0 76.5 -14t54.5 -40q17 -23 25.5 -60 t8.5 -105v-72q0 -56 -12 -99t-39 -68q-29 -27 -69 -38.5t-102 -11.5h-20q-70 0 -108.5 13t-59.5 36q-16 17 -28 49t-12 93v466q0 14 6.5 21.5t26.5 7.5h93q20 0 27 -7.5t7 -21.5v-176h2z" />
<glyph unicode="c" horiz-adv-x="454" d="M289 120q20 0 44 4t43 9q4 1 9 2t10 1q15 0 18 -17l9 -51q2 -8 3 -15t1 -12q0 -10 -5 -16t-21 -11q-30 -11 -67 -17t-77 -6h-12q-108 0 -158 50q-29 29 -40 70.5t-11 100.5v58q0 37 3 64t9.5 48t16 36t22.5 28q26 26 65.5 39.5t99.5 13.5h10q40 0 82.5 -9t71.5 -24 q19 -10 19 -25q0 -6 -2 -13t-6 -17l-19 -48q-4 -9 -8.5 -13.5t-12.5 -4.5q-6 0 -18 5q-22 9 -44 14.5t-45 5.5h-4q-38 0 -57 -19q-15 -15 -18.5 -36.5t-3.5 -55.5v-34q0 -34 4.5 -52.5t15.5 -31.5q19 -21 65 -21h8z" />
<glyph unicode="d" horiz-adv-x="529" d="M325 304q0 23 -3 34t-9 19q-13 16 -47 16h-10q-32 0 -46 -17q-10 -11 -12 -31.5t-2 -62.5v-44q0 -38 2.5 -57.5t12.5 -30.5q12 -14 46 -14h11q29 0 43 13q14 14 14 48v127zM325 481v167q0 14 7 21.5t27 7.5h93q20 0 26.5 -7.5t6.5 -21.5v-455q0 -59 -10 -92t-29 -54 q-27 -29 -67.5 -42.5t-113.5 -13.5h-17q-64 0 -100 11.5t-61 33.5q-28 24 -40 66.5t-12 102.5v80q0 62 10.5 101.5t39.5 66.5q21 20 55.5 33t77.5 13h12q29 0 52.5 -5t40.5 -13h2z" />
<glyph unicode="e" horiz-adv-x="499" d="M300 120q24 0 55.5 4t50.5 9q4 1 9 2t10 1q15 0 18 -17l8 -50q2 -8 3 -15t1 -12q0 -10 -5 -16t-21 -11q-30 -11 -72 -17.5t-79 -6.5h-19q-60 0 -104 12.5t-70 38.5q-30 30 -40 70.5t-10 101.5v56q0 75 17 118t43 66q51 45 157 45h14q54 0 92.5 -13.5t58.5 -36.5 q26 -29 37 -71.5t11 -107.5v-52q0 -16 -7 -22t-22 -6h-240v-8q0 -35 20 -48.5t73 -13.5h11zM306 294q12 0 12 13v16q0 30 -10 46q-12 18 -46 18h-9q-29 0 -42 -14q-15 -17 -15 -54v-25h110z" />
<glyph unicode="f" horiz-adv-x="358" d="M27 365q-15 0 -20 4.5t-5 20.5v49q0 19 4.5 25t21.5 11l53 13v43q0 42 9 71t31 48q43 36 132 36h10q29 0 57.5 -3t46.5 -8q17 -5 20.5 -13t1.5 -23l-6 -63q-2 -14 -7 -18t-22 -2q-14 2 -29.5 3t-26.5 1h-6q-18 0 -27 -2t-14 -7q-10 -10 -10 -35v-26h83q14 0 20 -5t6 -24 v-67q0 -19 -6 -24t-20 -5h-83v-336q0 -14 -7 -21.5t-27 -7.5h-92q-20 0 -27 7.5t-7 21.5v336h-54z" />
<glyph unicode="g" horiz-adv-x="536" d="M486 11q0 -51 -9.5 -87.5t-33.5 -59.5q-26 -25 -70.5 -38t-115.5 -13q-38 0 -82 6t-76 16q-14 5 -19.5 11.5t-0.5 24.5l16 59q5 16 12 20t24 0q31 -7 63.5 -11t54.5 -4q45 0 61 14t16 48v20q-17 -12 -42.5 -19t-53.5 -7h-21q-40 0 -71 11.5t-52 31.5q-26 25 -38.5 68 t-12.5 103v84q0 31 2.5 55.5t8 44t14.5 35.5t23 30q21 22 56.5 33.5t78.5 11.5h17q43 0 76.5 -12t53.5 -36h2l6 20q4 11 10.5 15t21.5 4h49q32 0 32 -31v-448zM326 304q0 23 -2.5 34.5t-8.5 19.5q-12 15 -45 15h-13q-17 0 -27.5 -3.5t-18.5 -12.5q-10 -11 -12 -32t-2 -55 v-55q0 -37 2.5 -54.5t11.5 -28.5q13 -16 47 -16h11q26 0 43 15q14 14 14 48v125z" />
<glyph unicode="h" horiz-adv-x="531" d="M266 371q-32 0 -44 -13q-11 -12 -11 -46v-283q0 -14 -7 -21.5t-27 -7.5h-92q-20 0 -27 7.5t-7 21.5v619q0 14 7 21.5t27 7.5h92q20 0 27 -7.5t7 -21.5v-176h2q44 27 107 27h3q88 0 127 -41q20 -21 28.5 -51t8.5 -81v-297q0 -14 -7 -21.5t-27 -7.5h-92q-20 0 -27 7.5 t-7 21.5v283q0 34 -11 46q-12 13 -44 13h-6z" />
<glyph unicode="i" horiz-adv-x="266" d="M213 29q0 -14 -7 -21.5t-27 -7.5h-92q-20 0 -27 7.5t-7 21.5v432q0 14 7 21.5t27 7.5h92q20 0 27 -7.5t7 -21.5v-432zM127 528q-44 0 -62.5 21.5t-18.5 61.5v5q0 40 18.5 61.5t62.5 21.5h12q44 0 62.5 -21.5t18.5 -61.5v-5q0 -40 -18.5 -61.5t-62.5 -21.5h-12z" />
<glyph unicode="j" horiz-adv-x="266" d="M-25 -178q-15 0 -21.5 6.5t-6.5 25.5v70q0 17 6.5 23t21.5 6h25q17 0 25 3t16 11q8 9 10 23.5t2 38.5v432q0 14 7 21.5t27 7.5h92q20 0 27 -7.5t7 -21.5v-443q0 -57 -8.5 -91.5t-30.5 -59.5t-56 -35t-85 -10h-58zM127 528q-44 0 -62.5 21.5t-18.5 61.5v5q0 40 18.5 61.5 t62.5 21.5h12q44 0 62.5 -21.5t18.5 -61.5v-5q0 -40 -18.5 -61.5t-62.5 -21.5h-12z" />
<glyph unicode="k" horiz-adv-x="494" d="M211 29q0 -14 -7 -21.5t-27 -7.5h-92q-20 0 -27 7.5t-7 21.5v619q0 14 7 21.5t27 7.5h92q20 0 27 -7.5t7 -21.5v-326h7l95 145q8 14 16.5 18.5t25.5 4.5h116q17 0 17 -12q0 -6 -8 -19l-115 -172q-13 -20 -13 -30q0 -7 3 -13t10 -17l123 -194q3 -5 4.5 -8.5t1.5 -8.5 q0 -16 -21 -16h-111q-21 0 -30.5 5t-18.5 21l-95 168h-7v-165z" />
<glyph unicode="l" horiz-adv-x="306" d="M262 130q15 0 22 -7t7 -27v-62q0 -20 -7 -27t-22 -7h-76q-75 0 -105 29q-17 16 -23.5 39.5t-6.5 61.5v518q0 14 7 21.5t27 7.5h92q20 0 27 -7.5t7 -21.5v-499q0 -11 4 -15t15 -4h32z" />
<glyph unicode="m" horiz-adv-x="799" d="M483 29q0 -14 -7 -21.5t-27 -7.5h-92q-20 0 -27 7.5t-7 21.5v283q0 34 -11 46q-12 13 -44 13h-2q-32 0 -44 -13q-11 -12 -11 -46v-283q0 -14 -7 -21.5t-27 -7.5h-92q-20 0 -27 7.5t-7 21.5v433q0 15 7 21.5t27 6.5h47q17 0 24.5 -4.5t12.5 -18.5l6 -19h3q48 51 137 51h4 q44 0 75 -10t57 -36q24 23 59 34.5t77 11.5h4q88 0 127 -41q20 -21 28.5 -51t8.5 -81v-297q0 -14 -7 -21.5t-27 -7.5h-92q-20 0 -27 7.5t-7 21.5v283q0 34 -11 46q-12 13 -44 13h-2q-32 0 -44 -13q-11 -12 -11 -46v-283z" />
<glyph unicode="n" horiz-adv-x="531" d="M323 499q88 0 127 -41q20 -21 28.5 -51t8.5 -81v-297q0 -14 -7 -21.5t-27 -7.5h-92q-20 0 -27 7.5t-7 21.5v283q0 34 -11 46q-12 13 -44 13h-6q-32 0 -44 -13q-11 -12 -11 -46v-283q0 -14 -7 -21.5t-27 -7.5h-92q-20 0 -27 7.5t-7 21.5v433q0 15 7 21.5t27 6.5h47 q17 0 24.5 -4.5t12.5 -18.5l6 -19h3q48 51 137 51h8z" />
<glyph unicode="o" horiz-adv-x="516" d="M196 206q0 -33 3.5 -49t14.5 -27q14 -14 42 -14h4q28 0 42 14q11 11 14.5 27t3.5 49v78q0 33 -3.5 49t-14.5 27q-14 14 -42 14h-4q-28 0 -42 -14q-11 -11 -14.5 -27t-3.5 -49v-78zM481 213q0 -38 -4 -67t-12 -50.5t-19.5 -37.5t-27.5 -28q-22 -17 -61 -28t-93 -11h-12 q-54 0 -93 11t-61 28q-16 12 -27.5 28t-19.5 37.5t-12 50.5t-4 67v64q0 38 4 67t12 50.5t19.5 37.5t27.5 28q22 17 61 28t93 11h12q54 0 93 -11t61 -28q16 -12 27.5 -28t19.5 -37.5t12 -50t4 -66.5v-65z" />
<glyph unicode="p" horiz-adv-x="536" d="M174 447q29 29 63.5 40.5t85.5 11.5h9q47 0 81 -14.5t52 -37.5t27 -59t9 -105v-75q0 -60 -9 -100.5t-37 -67.5t-61.5 -38t-78.5 -11h-11q-26 0 -51 5.5t-42 15.5v-154q0 -22 -8 -28.5t-34 -6.5h-76q-25 0 -33.5 6.5t-8.5 28.5v600q0 18 8 25t27 7h42q19 0 26 -4t11 -17 l7 -22h2zM211 177q0 -34 14 -48q14 -13 45 -13h9q20 0 31 5t18 15q8 13 10 32.5t2 54.5v43q0 35 -1.5 56t-10.5 33q-7 9 -18.5 13.5t-31.5 4.5h-7q-18 0 -28.5 -3.5t-18.5 -11.5t-10.5 -19t-2.5 -34v-128z" />
<glyph unicode="q" horiz-adv-x="537" d="M209 -9q-40 0 -71 11.5t-52 31.5q-26 25 -38.5 68t-12.5 103v84q0 31 2.5 55.5t8 44t14.5 35.5t23 30q21 22 56.5 33.5t78.5 11.5h17q43 0 76.5 -12t53.5 -36h2l6 20q4 11 10.5 15t21.5 4h49q32 0 32 -31v-601q0 -9 0.5 -15.5t-1 -11t-7 -6.5t-16.5 -2h-94 q-25 0 -33.5 6.5t-8.5 28.5v159q-17 -12 -42.5 -19t-53.5 -7h-21zM326 304q0 23 -2.5 34.5t-8.5 19.5q-12 15 -45 15h-13q-17 0 -27.5 -3.5t-18.5 -12.5q-10 -11 -12 -32t-2 -55v-55q0 -37 2.5 -54.5t11.5 -28.5q13 -16 47 -16h11q26 0 43 15q14 14 14 48v125z" />
<glyph unicode="r" horiz-adv-x="369" d="M180 436q18 29 44 41.5t68 12.5h40q16 0 22.5 -5.5t6.5 -22.5v-73q0 -17 -6 -22.5t-21 -5.5h-30q-55 0 -76 -21q-10 -10 -13.5 -27t-3.5 -42v-242q0 -14 -7 -21.5t-27 -7.5h-92q-20 0 -27 7.5t-7 21.5v433q0 15 7 21.5t27 6.5h48q17 0 24.5 -4.5t11.5 -18.5l8 -31h3z" />
<glyph unicode="s" horiz-adv-x="453" d="M38 342q0 74 39 112q46 45 152 45h10q17 0 37 -1.5t40 -4t38 -5.5t31 -7t16 -9.5t1 -16.5l-11 -82q-3 -19 -27 -13q-26 6 -53 10t-53 4h-1q-33 0 -46 -6t-13 -21v-3q0 -14 12 -20.5t45 -13.5l47 -10q32 -7 54.5 -17.5t37 -26.5t21 -39t6.5 -54v-15q0 -78 -47.5 -117.5 t-148.5 -39.5h-10q-21 0 -43.5 2t-45 5.5t-43 8.5t-35.5 11q-14 5 -17 12t0 23l14 66q5 29 34 19q25 -8 59.5 -15.5t60.5 -7.5h3q34 0 46.5 7t12.5 23v3q0 13 -10.5 19.5t-48.5 14.5l-44 10q-64 14 -92 44t-28 93v13z" />
<glyph unicode="t" horiz-adv-x="389" d="M364 37q0 -22 -6 -29.5t-26 -7.5h-80q-60 0 -91.5 8.5t-50.5 28.5q-16 17 -22.5 45t-6.5 76v207h-54q-14 0 -19.5 5.5t-5.5 19.5v51q0 19 5 24.5t21 9.5l53 13v98q0 14 7 21.5t27 7.5h92q20 0 27 -7.5t7 -21.5v-96h83q14 0 20 -5t6 -24v-67q0 -19 -6 -24t-20 -5h-83v-189 q0 -13 1.5 -21t6.5 -14q5 -5 13.5 -7.5t25.5 -2.5h44q20 0 26 -7.5t6 -29.5v-57z" />
<glyph unicode="u" horiz-adv-x="518" d="M314 461q0 14 7 21.5t27 7.5h92q20 0 27 -7.5t7 -21.5v-296q0 -48 -11 -79.5t-34 -52.5q-27 -24 -68.5 -33t-101.5 -9t-101.5 9t-68.5 33q-23 21 -34 52.5t-11 79.5v296q0 14 7 21.5t27 7.5h92q20 0 27 -7.5t7 -21.5v-282q0 -34 11 -46q12 -13 44 -13t44 13q11 12 11 46 v282z" />
<glyph unicode="v" horiz-adv-x="494" d="M486 461q-14 -50 -32 -110.5t-38 -120.5t-40 -115.5t-37 -94.5q-5 -10 -12 -15t-23 -5h-109q-15 0 -23.5 4.5t-13.5 16.5q-17 39 -38 93t-41.5 114t-39.5 120.5t-31 112.5q-7 29 28 29h93q17 0 23.5 -4t10.5 -19q10 -39 22 -81.5t23.5 -82.5t22 -74.5t18.5 -56.5h4 q7 23 17.5 57t21 73.5t21 81t19.5 79.5q4 17 10 22t23 5h95q34 0 26 -29z" />
<glyph unicode="w" horiz-adv-x="699" d="M393 466q21 0 29 -5t11 -25q4 -27 11.5 -63t15 -73t14.5 -71.5t12 -58.5h3q4 25 10.5 61.5t13 77t12.5 81t11 72.5q2 17 7.5 22.5t21.5 5.5h102q18 0 22.5 -7t1.5 -23q-11 -53 -26 -120.5t-30 -130.5t-28.5 -114t-21.5 -71q-6 -16 -13.5 -20t-23.5 -4h-110q-20 0 -27.5 6 t-10.5 17q-7 27 -14.5 61.5t-14 70t-12 69t-8.5 57.5h-4q-3 -24 -9 -57.5t-12.5 -69t-14 -70t-14.5 -61.5q-3 -12 -11 -17.5t-25 -5.5h-108q-17 0 -25 5t-13 17q-8 21 -21.5 72t-29 114.5t-31 131t-25.5 120.5q-4 18 3 24t23 6h98q17 0 23.5 -6t8.5 -22q5 -33 12 -76.5 t14.5 -86t13.5 -78t9 -51.5h4q5 24 11.5 58t13.5 71t13.5 73t10.5 64q3 21 11 25.5t30 4.5h86z" />
<glyph unicode="x" horiz-adv-x="497" d="M181 25q-8 -17 -14.5 -21t-26.5 -4h-112q-17 0 -21 9.5t4 23.5l102 196q4 8 5 11.5t1 8.5t-1 8.5t-5 10.5l-96 189q-8 14 -4 23.5t21 9.5h112q20 0 27 -4t14 -21l54 -138q2 -4 7 -4h1q5 0 7 4l54 138q7 17 14 21t27 4h112q17 0 21 -9.5t-4 -23.5l-96 -189q-4 -8 -5 -11.5 t-1 -8.5t1 -8.5t5 -10.5l102 -196q8 -14 4 -23.5t-21 -9.5h-112q-20 0 -26.5 4t-14.5 21l-60 141q-2 4 -7 4h-1q-5 0 -7 -4z" />
<glyph unicode="y" horiz-adv-x="482" d="M475 460q-10 -67 -29.5 -145.5t-47 -161.5t-63.5 -168t-79 -164q-6 -12 -12.5 -16.5t-15.5 -4.5q-11 0 -29 8l-51 22q-26 12 -26 25q0 7 5 17l16.5 33t17 33.5t15 30.5t9.5 23q-20 8 -35.5 22t-29.5 46t-30.5 83t-32.5 108t-29 113t-21 97q-6 29 30 29h91q17 0 24.5 -4.5 t10.5 -19.5q7 -41 16.5 -85t19.5 -87.5t20.5 -85t21.5 -77.5h5q12 34 24 78t22 90t18.5 89t13.5 75q2 16 9.5 21.5t22.5 5.5h92q17 0 23 -6.5t4 -23.5z" />
<glyph unicode="z" horiz-adv-x="441" d="M55 363q-14 0 -20 5t-6 24v69q0 19 6 24t20 5h338q14 0 21.5 -6t7.5 -23v-19q0 -22 -4 -36t-18 -35l-172 -244h171q14 0 20 -5t6 -24v-69q0 -19 -6 -24t-20 -5h-344q-16 0 -23.5 6t-7.5 23v23q0 23 4 37t18 34l168 240h-159z" />
<glyph unicode="{" horiz-adv-x="404" d="M204 294q39 -12 54.5 -42t15.5 -72v-102q0 -17 6.5 -22t19.5 -5h47q27 0 27 -27v-80q0 -17 -6.5 -23t-26.5 -6h-88q-69 0 -102.5 32t-33.5 113v117q0 23 -14 34.5t-43 15.5q-24 3 -24 29v80q0 26 24 29q57 7 57 50v117q0 81 33.5 113t102.5 32h88q20 0 26.5 -6t6.5 -23 v-80q0 -27 -27 -27h-47q-13 0 -19.5 -5t-6.5 -22v-102q0 -42 -16 -73t-54 -41v-4z" />
<glyph unicode="|" horiz-adv-x="283" d="M220 20q0 -29 -8 -36t-36 -7h-71q-14 0 -22.5 1t-13 5.5t-5.5 13t-1 23.5v623q0 15 1 23.5t5.5 13t13 5.5t22.5 1h71q28 0 36 -7t8 -36v-623z" />
<glyph unicode="}" horiz-adv-x="404" d="M200 298q-38 10 -54 41t-16 73v102q0 17 -6.5 22t-19.5 5h-47q-27 0 -27 27v80q0 17 6.5 23t26.5 6h88q69 0 102.5 -32t33.5 -113v-117q0 -43 57 -50q24 -3 24 -29v-80q0 -26 -24 -29q-29 -4 -43 -15.5t-14 -34.5v-117q0 -81 -33.5 -113t-102.5 -32h-88q-20 0 -26.5 6 t-6.5 23v80q0 27 27 27h47q13 0 19.5 5t6.5 22v102q0 42 15.5 72t54.5 42v4z" />
<glyph unicode="~" d="M260 237q-18 11 -28.5 16.5t-24.5 5.5q-17 0 -32.5 -13t-34.5 -42q-9 -15 -25 -15q-13 0 -26 8l-64 39q-16 9 -16 25q0 11 5.5 21t11.5 20q37 63 81 91.5t92 28.5q27 0 51.5 -9t47.5 -23l32 -20q23 -14 37 -20t27 -6q28 0 55 52q8 18 21 18q7 0 19 -6l66 -37 q16 -9 16 -20q0 -10 -4.5 -20.5t-12.5 -25.5q-32 -61 -75 -88.5t-91 -27.5q-49 0 -92 26z" />
<glyph unicode="&#xa1;" horiz-adv-x="257" d="M40 0zM174 -173.959q27 0 35.5 6.49902q8.5 6.5 6.5 31.498l-18 392.977q-1 20.998 -10 26.498t-32 5.5h-56q-23 0 -30.5 -6t-8.5 -23.999l-19 -394.976q-2 -24.998 6.5 -31.498q8.5 -6.49902 35.5 -6.49902h90zM125 498.999q-17 0 -32.5 -3.99902q-15.5 -4 -27 -13 q-11.5 -8.99902 -18.5 -23.998t-7 -36.998v-7.99902q0 -45.9971 25 -62.9961t60 -16.999h3q17 0 32.5 4q15.5 3.99902 27 12.999q11.5 8.99902 18.5 24.498t7 38.498v7.99902q0 21.999 -7 36.998t-18.5 23.998q-11.5 9 -27 13q-15.5 3.99902 -32.5 3.99902h-3z" />
<glyph unicode="&#xa2;" d="M366 495q28 -4 55 -11.5t47 -18.5q19 -10 19 -25q0 -6 -2 -13t-6 -17l-19 -47q-5 -10 -9 -14t-12 -4q-6 0 -18 5q-27 11 -55 17v-246q16 2 32.5 5t30.5 7q4 1 9 2t10 1q15 0 18 -17l9 -51q2 -8 3 -15t1 -12q0 -10 -5 -16t-21 -11q-41 -14 -87 -20v-70q0 -14 -14 -14h-30 q-13 0 -13 14v67h-12q-108 0 -158 50q-29 29 -40 70.5t-11 100.5v58q0 37 3 64t9.5 48t16 36t22.5 28q26 26 65.5 39.5t99.5 13.5h5v67q0 14 13 14h30q14 0 14 -14v-71zM269 141q14 -16 40 -20v248q-25 -5 -38 -18q-15 -15 -18.5 -36.5t-3.5 -55.5v-34q0 -34 4.5 -52.5 t15.5 -31.5z" />
<glyph unicode="&#xa3;" d="M509 522q-3 -11 -11.5 -15t-28.5 1t-43.5 8.5t-41.5 3.5h-4q-40 0 -53.5 -20t-13.5 -58v-60h147q14 0 19 -5t5 -20v-71q0 -14 -5 -18.5t-19 -4.5h-148v-16q0 -40 -13 -71.5t-33 -47.5h241q17 0 23 -5.5t6 -22.5v-72q0 -15 -5.5 -21.5t-21.5 -6.5h-426q-15 0 -21 5.5 t-6 19.5v60q0 11 3.5 16.5t11.5 10.5q42 25 58 56.5t16 76.5v18h-52q-16 0 -21 6t-5 21v43q0 19 5 25.5t23 8.5l50 7v79q0 100 48 151.5t160 51.5h6q39 0 78.5 -6.5t71.5 -17.5q19 -7 19 -25q0 -6 -1 -12.5t-3 -12.5z" />
<glyph unicode="&#xa4;" horiz-adv-x="576" d="M372 105q-20 -9 -41.5 -12.5t-44.5 -3.5q-22 0 -43 4t-39 11l-59 -56q-22 -21 -40 0l-66 68q-11 11 -11.5 19t11.5 22l56 54q-16 38 -16 86q0 23 4 45t13 42l-58 54q-11 11 -10 21t12 22l65 67q19 20 40 0l60 -57q19 6 39 9.5t42 3.5q44 0 84 -14l61 58q22 21 40 0 l65 -67q11 -12 11.5 -20t-11.5 -22l-59 -57q9 -20 12.5 -41t3.5 -44t-3 -44.5t-11 -40.5l57 -55q12 -14 11.5 -22t-11.5 -19l-65 -68q-18 -21 -40 0zM216 297q0 -32 20.5 -52t49.5 -20t49.5 20t20.5 52t-20.5 52t-49.5 20t-49.5 -20t-20.5 -52z" />
<glyph unicode="&#xa5;" d="M205 185v40h-116q-14 0 -20 5t-6 21v48q0 16 6 21t20 5h53q-32 69 -59.5 143.5t-47.5 145.5q-9 33 19 33h104q22 0 30 -2.5t13 -21.5q8 -32 18.5 -69.5t22 -76.5t23 -76.5t22.5 -68.5h5q11 31 23 68.5t23.5 76.5t22 76.5t18.5 69.5q5 19 13 21.5t30 2.5h104q28 0 19 -33 q-20 -71 -48.5 -145.5t-60.5 -143.5h51q14 0 20 -5t6 -21v-48q0 -16 -6 -21t-20 -5h-113v-40h113q14 0 20 -5t6 -21v-48q0 -16 -6 -21t-20 -5h-113v-54q0 -18 -6.5 -24.5t-25.5 -6.5h-105q-19 0 -25.5 6.5t-6.5 24.5v54h-116q-14 0 -20 5t-6 21v48q0 16 6 21t20 5h116z" />
<glyph unicode="&#xa6;" horiz-adv-x="283" d="M220 424q0 -29 -8 -36t-36 -7h-71q-14 0 -22.5 1t-13 5.5t-5.5 13t-1 23.5v219q0 15 1 23.5t5.5 13t13 5.5t22.5 1h71q28 0 36 -7t8 -36v-219zM220 20q0 -29 -8 -36t-36 -7h-71q-14 0 -22.5 1t-13 5.5t-5.5 13t-1 23.5v219q0 15 1 23.5t5.5 13t13 5.5t22.5 1h71 q28 0 36 -7t8 -36v-219z" />
<glyph unicode="&#xa7;" horiz-adv-x="500" d="M197 367q-11 -9 -11 -25v-3q0 -14 11 -22t48 -16l39 -9q6 5 9 12t3 14v3q0 7 -1.5 11.5t-7 8.5t-17 7.5t-30.5 8.5zM371 514q-20 7 -48 11.5t-49 4.5h-4q-26 0 -39 -4t-13 -16v-4q0 -8 12.5 -13t41.5 -10l39 -8q39 -8 65 -18t41 -23t21 -30t6 -41v-6q0 -32 -15.5 -56 t-44.5 -37q31 -17 47.5 -45.5t16.5 -66.5v-10q0 -35 -14 -63t-39 -48q-26 -20 -67 -30t-88 -10h-8q-17 0 -37 2t-40.5 6t-40.5 9.5t-35 12.5q-12 5 -18 10.5t-6 16.5q0 7 3 21l13 55q4 16 12 20.5t26 -1.5q26 -9 59.5 -16.5t61.5 -7.5h5q32 0 41 5.5t9 16.5v2q0 11 -12 17 t-44 13l-39 8q-76 16 -107 45t-31 72v8q0 30 16.5 53t41.5 34q-57 32 -57 114v8q0 38 19.5 67.5t52.5 47.5q48 26 130 26h7q39 0 76 -6t66 -16q14 -5 14 -14q0 -3 -2 -14t-5 -27l-9 -49q-3 -19 -17 -19q-5 0 -14 3z" />
<glyph unicode="&#xa8;" horiz-adv-x="395" d="M107 695q28 0 46.5 -18t18.5 -47v-8q0 -29 -18.5 -47t-46.5 -18h-6q-28 0 -46.5 18t-18.5 47v8q0 29 18.5 47t46.5 18h6zM294 695q28 0 46.5 -18t18.5 -47v-8q0 -29 -18.5 -47t-46.5 -18h-6q-28 0 -46.5 18t-18.5 47v8q0 29 18.5 47t46.5 18h6z" />
<glyph unicode="&#xa9;" horiz-adv-x="824" d="M412 94q63 0 109.5 19.5t77 53t45.5 79.5t15 100q0 55 -15 102t-45.5 81.5t-77 53.5t-109.5 19t-109.5 -19t-77 -53.5t-45.5 -81.5t-15 -102q0 -54 15 -100t45.5 -79.5t77 -53t109.5 -19.5zM412 -14q-87 0 -156 27.5t-117 76t-73.5 114.5t-25.5 144t25.5 144t73.5 114.5 t117 76t156 27.5t156 -27.5t117 -76t73.5 -114.5t25.5 -144t-25.5 -144t-73.5 -114.5t-117 -76t-156 -27.5zM534 210q4 -13 -0.5 -19t-21.5 -12q-20 -8 -44 -12.5t-47 -4.5q-81 0 -117 35.5t-36 109.5v77q0 81 34 116t114 35q32 0 60 -6.5t48 -17.5q10 -5 11.5 -12t-2.5 -19 l-12 -37q-5 -13 -11.5 -14t-17.5 4q-17 8 -30.5 11.5t-27.5 3.5q-32 0 -42 -12.5t-10 -47.5v-83q0 -28 10 -42t43 -14q13 0 27 3t34 9q12 4 17.5 1.5t8.5 -13.5z" />
<glyph unicode="&#xaa;" horiz-adv-x="347" d="M208 413q-9 1 -19 1.5t-19 0.5h-4q-23 0 -32.5 -7t-9.5 -24v-3q0 -14 8 -21t28 -7h4q44 0 44 40v20zM226 314h-2q-8 -14 -29.5 -24t-50.5 -10h-13q-30 0 -50 9t-32 23.5t-16.5 32.5t-4.5 37v4q0 59 33 79t93 20h5q25 0 49 -3v13q0 15 -10 21.5t-38 6.5h-5 q-18 0 -37.5 -3.5t-37.5 -8.5q-9 -3 -13.5 0.5t-6.5 11.5l-5 24q-2 12 -3 17.5t-1 10.5q0 13 14 17q54 17 115 17h7q29 0 52.5 -5t39.5 -17.5t24.5 -33.5t8.5 -54v-193q0 -19 -18 -19h-43q-11 0 -15 2t-6 10z" />
<glyph unicode="&#xab;" horiz-adv-x="726" d="M28 10zM219 234l122 -104q20 -17 19 -28t-13 -25l-47 -52q-13 -14 -23 -14.5t-25 11.5l-197 157q-17 14 -22 23t-5 26v12q0 15 4 24.5t23 24.5l197 157q15 12 25.5 11.5t22.5 -14.5l47 -52q14 -16 13 -27t-19 -26zM553 234l122 -104q20 -17 19 -28t-13 -25l-47 -52 q-13 -14 -23 -14.5t-25 11.5l-197 157q-17 14 -22 23t-5 26v12q0 15 4 24.5t23 24.5l197 157q15 12 25.5 11.5t22.5 -14.5l47 -52q14 -16 13 -27t-19 -26z" />
<glyph unicode="&#xac;" d="M531 66q0 -20 -8 -27t-28 -7h-62q-21 0 -30.5 7t-9.5 27v123h-309q-20 0 -27.5 8t-7.5 28v62q0 21 7.5 30.5t27.5 9.5h408q20 0 29.5 -8t9.5 -29v-224z" />
<glyph unicode="&#xad;" horiz-adv-x="364" d="M32 188zM72 188q-25 0 -32.5 7t-7.5 25v75q0 18 8.5 25t31.5 7h220q23 0 31.5 -7t8.5 -25v-75q0 -18 -7.5 -25t-32.5 -7h-220z" />
<glyph unicode="&#xae;" horiz-adv-x="824" d="M387 196q0 -14 -7 -21t-25 -7h-41q-18 0 -25 7t-7 21v298q0 15 7.5 24t25.5 11q17 2 40.5 2.5t48.5 0.5q78 0 115.5 -29.5t37.5 -86.5v-8q0 -76 -70 -104l72 -109q8 -11 2.5 -19t-24.5 -8h-55q-14 0 -21 4t-13 15l-59 104h-2v-95zM412 448h-12t-11 -1v-78h17q26 0 36 10 q9 9 9 33v1q0 35 -39 35zM412 94q63 0 109.5 19.5t77 53t45.5 79.5t15 100q0 55 -15 102t-45.5 81.5t-77 53.5t-109.5 19t-109.5 -19t-77 -53.5t-45.5 -81.5t-15 -102q0 -54 15 -100t45.5 -79.5t77 -53t109.5 -19.5zM412 -14q-87 0 -156 27.5t-117 76t-73.5 114.5t-25.5 144 t25.5 144t73.5 114.5t117 76t156 27.5t156 -27.5t117 -76t73.5 -114.5t25.5 -144t-25.5 -144t-73.5 -114.5t-117 -76t-156 -27.5z" />
<glyph unicode="&#xaf;" horiz-adv-x="396" d="M89 571q-26 0 -26 24v49q0 25 26 25h218q26 0 26 -25v-49q0 -24 -26 -24h-218z" />
<glyph unicode="&#xb0;" horiz-adv-x="368" d="M184 449q-34 0 -62 11t-47.5 31t-30.5 48t-11 61t11 61.5t30.5 49t47.5 32t62 11.5t62 -11.5t47.5 -32t30.5 -49t11 -61.5t-11 -61t-30.5 -48t-47.5 -31t-62 -11zM184 549q20 0 33 12.5t13 38.5t-13 39t-33 13t-33 -13t-13 -39t13 -38.5t33 -12.5z" />
<glyph unicode="&#xb1;" d="M367 361v-133q0 -24 -10 -30t-31 -6h-72q-21 0 -31 6t-10 30v133h-129q-20 0 -27.5 8t-7.5 28v62q0 21 7.5 30.5t27.5 9.5h129v133q0 24 10 30t31 6h72q21 0 31 -6t10 -30v-133h129q20 0 27.5 -9.5t7.5 -30.5v-62q0 -20 -7.5 -28t-27.5 -8h-129zM496 138q20 0 27.5 -9.5 t7.5 -30.5v-62q0 -20 -7.5 -28t-27.5 -8h-412q-20 0 -27.5 8t-7.5 28v62q0 21 7.5 30.5t27.5 9.5h412z" />
<glyph unicode="&#xb2;" horiz-adv-x="452" d="M131 696q-8 -2 -10 -2q-10 0 -11 9l-12 54q-2 12 -3.5 18.5t-1.5 8.5q0 10 12 15q26 10 61.5 17t68.5 7h7q59 0 97.5 -27.5t38.5 -85.5v-6q0 -24 -4.5 -42t-14 -31.5t-24.5 -25t-37 -22.5l-33 -16q-26 -13 -36.5 -19t-10.5 -16v-7h129q16 0 21 -6t5 -23v-54q0 -16 -5 -22 t-21 -6h-230q-20 0 -27 7t-7 27v44q0 54 18 86.5t68 56.5l31 15q29 14 38.5 22.5t9.5 18.5v4q0 7 -6.5 12.5t-19.5 5.5h-7q-18 0 -41 -4.5t-43 -12.5z" />
<glyph unicode="&#xb3;" horiz-adv-x="452" d="M85 518q5 20 12.5 24t20.5 -1q14 -5 39 -10t43 -5h5q22 0 31 6t9 20v5q0 11 -8 16.5t-32 5.5h-23q-12 0 -17.5 4t-5.5 17v39q0 13 5.5 17t16.5 4h19q29 0 36.5 8t7.5 18v3q0 21 -35 21h-4q-15 0 -37.5 -4t-42.5 -10q-6 -2 -9 -2q-10 0 -13 14l-10 49q-2 11 -3.5 17 t-1.5 10q0 11 11 14q27 11 64 18t70 7h6q135 0 135 -110v-6q0 -32 -10.5 -51.5t-35.5 -32.5v-3q49 -17 49 -73v-6q0 -62 -39.5 -94t-115.5 -32h-9q-29 0 -62 5.5t-57 13.5q-12 4 -16.5 8.5t-5.5 12.5q0 4 0.5 9.5t4.5 20.5z" />
<glyph unicode="&#xb4;" horiz-adv-x="419" d="M245 756q10 9 19 9q11 0 20 -13l48 -62q6 -8 6 -17q0 -8 -4 -13t-12 -11l-158 -108q-11 -7 -20 -7q-8 0 -12 3t-12 11l-30 35q-11 14 -11 23q0 10 9 16z" />
<glyph unicode="&#xb6;" horiz-adv-x="670" d="M567 -77q0 -19 -8 -24t-25 -5h-94q-17 0 -25 5t-8 24v604h-60v-604q0 -19 -8 -24t-25 -5h-94q-17 0 -25 5t-8 24v354q-81 14 -122.5 63.5t-41.5 123.5v9q0 40 13.5 74t41 58.5t69.5 38.5t98 14h379q13 0 18 -4.5t5 -18.5v-85q0 -23 -23 -23h-57v-604z" />
<glyph unicode="&#xb7;" horiz-adv-x="243" d="M207 286q0 -46 -21 -64.5t-59 -18.5h-11q-38 0 -59 18.5t-21 64.5v10q0 46 21 63.5t59 17.5h11q38 0 59 -17.5t21 -63.5v-10z" />
<glyph unicode="&#xb8;" horiz-adv-x="448" d="M215 -53q15 3 35 3h2q35 0 58.5 -21t23.5 -66v-3q0 -54 -30 -78.5t-87 -24.5h-5q-25 0 -52 4t-44 9q-10 4 -14 7.5t-4 11.5q0 3 0.5 8t1.5 10l4 25q3 15 13 15q3 0 9 -2q11 -4 29.5 -7t37.5 -3h3q29 0 29 20v2q0 9 -7 15t-22 6h-3q-8 0 -17 -1t-18 -3q-14 -3 -21 6 l-11 14q-8 11 -8 15q0 6 4 19l18 64q3 13 16 13h58q13 0 13 -8q0 -2 -1 -7.5t-3 -10.5z" />
<glyph unicode="&#xb9;" horiz-adv-x="452" d="M120 414q-18 0 -23 6t-5 22v62q0 17 6.5 22.5t22.5 5.5h61v138h-4l-39 -23q-12 -6 -20 -6q-11 0 -20 15l-25 49q-7 11 -7 19q0 11 15 20l91 56q16 10 26 13t31 3h52q15 0 21.5 -6t6.5 -22v-256h47q16 0 22.5 -5.5t6.5 -22.5v-62q0 -16 -5 -22t-23 -6h-238z" />
<glyph unicode="&#xba;" horiz-adv-x="360" d="M221 475q0 27 -10 36.5t-29 9.5h-4q-19 0 -29 -9.5t-10 -36.5v-59q0 -27 10 -37.5t29 -10.5h4q19 0 29 10.5t10 37.5v59zM326 426q0 -78 -34 -112t-109 -34h-6q-75 0 -109 34t-34 112v37q0 78 34 112t109 34h6q75 0 109 -34t34 -112v-37z" />
<glyph unicode="&#xbb;" horiz-adv-x="726" d="M31 10zM173.014 234l-121.993 -104q-19.998 -17 -18.999 -28q1 -11 13 -25l46.9971 -52q12.999 -14 22.998 -14.5q10 -0.5 24.999 11.5l196.987 157q16.999 14 21.999 23t5 26v12q0 15 -4 24.5t-22.999 24.5l-196.987 157q-14.999 12 -25.499 11.5 q-10.499 -0.5 -22.498 -14.5l-46.9971 -52q-13.999 -16 -13 -27q1 -11 18.999 -26zM507.014 234l-121.993 -104q-19.998 -17 -18.999 -28q1 -11 13 -25l46.9971 -52q12.999 -14 22.998 -14.5q10 -0.5 24.999 11.5l196.987 157q16.999 14 21.999 23t5 26v12q0 15 -4 24.5 t-22.999 24.5l-196.987 157q-14.999 12 -25.499 11.5q-10.499 -0.5 -22.498 -14.5l-46.9971 -52q-13.999 -16 -13 -27q1 -11 18.999 -26z" />
<glyph unicode="&#xbc;" horiz-adv-x="1037" d="M908 86v-62q0 -13 -5 -18.5t-21 -5.5h-73q-26 0 -26 23v63h-155q-14 0 -19.5 5t-5.5 21v31q0 8 3.5 16.5t15.5 27.5l122 188q9 15 16.5 21t27.5 6h86q22 0 28 -5.5t6 -25.5v-187h28q11 0 16 -3.5t5 -18.5v-52q0 -14 -5 -19t-16 -5h-28zM720 184h63v96h-4zM117 244 q-18 0 -23 6t-5 22v62q0 17 6.5 22.5t22.5 5.5h61v138h-4l-39 -23q-12 -6 -20 -6q-11 0 -20 15l-25 49q-7 11 -7 19q0 11 15 20l91 56q16 10 26 13t31 3h52q15 0 21.5 -6t6.5 -22v-256h47q16 0 22.5 -5.5t6.5 -22.5v-62q0 -16 -5 -22t-23 -6h-238zM636 630q8 14 18 20t33 6 h75q16 0 21.5 -9t-3.5 -23l-350 -603q-8 -14 -18 -20t-33 -6h-75q-16 0 -21.5 9t3.5 23z" />
<glyph unicode="&#xbd;" horiz-adv-x="1037" d="M65 0zM636 630q8 14 18 20t33 6h75q16 0 21.5 -9t-3.5 -23l-350 -603q-8 -14 -18 -20t-33 -6h-75q-16 0 -21.5 9t3.5 23zM118 245q-18 0 -23 6t-5 22v62q0 17 6.5 22.5t22.5 5.5h61v138h-4l-39 -23q-12 -6 -20 -6q-11 0 -20 15l-25 49q-7 11 -7 19q0 11 15 20l91 56 q16 10 26 13t31 3h52q15 0 21.5 -6t6.5 -22v-256h47q16 0 22.5 -5.5t6.5 -22.5v-62q0 -16 -5 -22t-23 -6h-238zM726 285q-8 -2 -10 -2q-10 0 -11 9l-12 54q-2 12 -3.5 18.5t-1.5 8.5q0 10 12 15q26 10 61.5 17t68.5 7h7q59 0 97.5 -27.5t38.5 -85.5v-6q0 -24 -4.5 -42 t-14 -31.5t-24.5 -25t-37 -22.5l-33 -16q-26 -13 -36.5 -19t-10.5 -16v-7h129q16 0 21 -6t5 -23v-54q0 -16 -5 -22t-21 -6h-230q-20 0 -27 7t-7 27v44q0 54 18 86.5t68 56.5l31 15q29 14 38.5 22.5t9.5 18.5v4q0 7 -6.5 12.5t-19.5 5.5h-7q-18 0 -41 -4.5t-43 -12.5z" />
<glyph unicode="&#xbe;" horiz-adv-x="1037" d="M908 86v-62q0 -13 -5 -18.5t-21 -5.5h-73q-26 0 -26 23v63h-155q-14 0 -19.5 5t-5.5 21v31q0 8 3.5 16.5t15.5 27.5l122 188q9 15 16.5 21t27.5 6h86q22 0 28 -5.5t6 -25.5v-187h28q11 0 16 -3.5t5 -18.5v-52q0 -14 -5 -19t-16 -5h-28zM720 184h63v96h-4zM639 630 q8 14 18 20t33 6h75q16 0 21.5 -9t-3.5 -23l-350 -603q-8 -14 -18 -20t-33 -6h-75q-16 0 -21.5 9t3.5 23zM114 347q5 20 12.5 24t20.5 -1q14 -5 39 -10t43 -5h5q22 0 31 6t9 20v5q0 11 -8 16.5t-32 5.5h-23q-12 0 -17.5 4t-5.5 17v39q0 13 5.5 17t16.5 4h19q29 0 36.5 8 t7.5 18v3q0 21 -35 21h-4q-15 0 -37.5 -4t-42.5 -10q-6 -2 -9 -2q-10 0 -13 14l-10 49q-2 11 -3.5 17t-1.5 10q0 11 11 14q27 11 64 18t70 7h6q135 0 135 -110v-6q0 -32 -10.5 -51.5t-35.5 -32.5v-3q49 -17 49 -73v-6q0 -62 -39.5 -94t-115.5 -32h-9q-29 0 -62 5.5t-57 13.5 q-12 4 -16.5 8.5t-5.5 12.5q0 4 0.5 9.5t4.5 20.5z" />
<glyph unicode="&#xbf;" horiz-adv-x="467" d="M38 0zM225.015 278.013q0 17.999 22.999 17.999h78.9951q22.998 0 22.998 -21.998v-22.999q0 -28.998 -2.5 -48.9971q-2.49902 -19.999 -9.99902 -34.998q-7.49902 -14.999 -21.999 -27.498q-14.499 -12.499 -37.4971 -26.498l-24.999 -15 q-33.9971 -19.998 -43.9971 -35.9971q-9.99902 -15.999 -9.99902 -39.998v-3q0 -54.9961 65.9961 -54.9961h1.99902q26.999 0 59.4971 7.99902q32.498 8 61.4961 18.999q11.999 5 19.499 1.5q7.49902 -3.5 12.499 -17.499l18.999 -58.9961q2 -5 3 -10.499q1 -5.5 1 -10.5 q0 -15.999 -21.999 -25.998q-14.999 -7 -35.998 -13.499q-20.999 -6.5 -43.9971 -11q-22.999 -4.49902 -46.9971 -7.49902q-23.999 -3 -45.9971 -3h-7q-99.9941 0 -151.49 39.498q-51.4971 39.4971 -51.4971 119.492v7q0 55.9961 19.499 92.9941 q19.498 36.9971 70.4951 67.9961l29.998 17.998q37.998 22.999 52.4971 39.498t14.499 45.4971v13.999zM287.011 498.999q16.999 0 32.498 -3.99902q15.499 -4 26.999 -13q11.499 -8.99902 18.498 -23.998q7 -14.999 7 -36.998v-7.99902q0 -45.9971 -24.998 -62.9961 q-24.999 -16.999 -59.9971 -16.999h-3q-16.999 0 -32.498 4q-15.499 3.99902 -26.998 12.999q-11.499 8.99902 -18.499 24.498q-6.99902 15.499 -6.99902 38.498v7.99902q0 21.999 6.99902 36.998q7 14.999 18.499 23.998q11.499 9 26.998 13q15.499 3.99902 32.498 3.99902 h3z" />
<glyph unicode="&#xc0;" horiz-adv-x="613" d="M15 0zM372 246q-6 24 -13.5 52t-15.5 58l-16 60t-15 56h-11q-8 -26 -16 -56t-15.5 -60t-15 -58t-13.5 -52h131zM477 0q-15 0 -24.5 2t-15 5.5t-8 10t-5.5 15.5l-23 83h-189l-23 -83q-3 -9 -5.5 -15.5t-8 -10.5t-15 -5.5t-24.5 -1.5h-87q-17 0 -25.5 4.5t-8.5 17.5 q0 5 3 16t11 39q42 141 80.5 270.5t80.5 254.5q8 25 23.5 35t47.5 10h91q32 0 47.5 -10t23.5 -35q42 -125 81.5 -254.5t81.5 -270.5q8 -28 11 -39t3 -16q0 -13 -8.5 -17.5t-25.5 -4.5h-89zM408 779q11 -7 11 -18q0 -9 -8 -21l-26 -38q-7 -9 -11.5 -13t-10.5 -4q-11 0 -21 5 l-169 89q-19 10 -19 24q0 10 7 21l38 62q3 5 7.5 10t11.5 5q8 0 19 -7z" />
<glyph unicode="&#xc1;" horiz-adv-x="613" d="M15 0zM372 246q-6 24 -13.5 52t-15.5 58l-16 60t-15 56h-11q-8 -26 -16 -56t-15.5 -60t-15 -58t-13.5 -52h131zM477 0q-15 0 -24.5 2t-15 5.5t-8 10t-5.5 15.5l-23 83h-189l-23 -83q-3 -9 -5.5 -15.5t-8 -10.5t-15 -5.5t-24.5 -1.5h-87q-17 0 -25.5 4.5t-8.5 17.5 q0 5 3 16t11 39q42 141 80.5 270.5t80.5 254.5q8 25 23.5 35t47.5 10h91q32 0 47.5 -10t23.5 -35q42 -125 81.5 -254.5t81.5 -270.5q8 -28 11 -39t3 -16q0 -13 -8.5 -17.5t-25.5 -4.5h-89zM376 894q11 7 19 7q7 0 11.5 -5t7.5 -10l38 -62q7 -11 7 -21q0 -14 -19 -24 l-169 -89q-10 -5 -21 -5q-6 0 -10.5 4t-11.5 13l-26 38q-8 12 -8 21q0 11 11 18z" />
<glyph unicode="&#xc2;" horiz-adv-x="613" d="M15 0zM372 246q-6 24 -13.5 52t-15.5 58l-16 60t-15 56h-11q-8 -26 -16 -56t-15.5 -60t-15 -58t-13.5 -52h131zM477 0q-15 0 -24.5 2t-15 5.5t-8 10t-5.5 15.5l-23 83h-189l-23 -83q-3 -9 -5.5 -15.5t-8 -10.5t-15 -5.5t-24.5 -1.5h-87q-17 0 -25.5 4.5t-8.5 17.5 q0 5 3 16t11 39q42 141 80.5 270.5t80.5 254.5q8 25 23.5 35t47.5 10h91q32 0 47.5 -10t23.5 -35q42 -125 81.5 -254.5t81.5 -270.5q8 -28 11 -39t3 -16q0 -13 -8.5 -17.5t-25.5 -4.5h-89zM238 704q-10 -11 -22 -11q-11 0 -21 9l-36 30q-7 7 -7 13q0 9 8 17l88 102 q8 8 14 10.5t14 2.5h61q8 0 14 -2.5t14 -10.5l88 -102q8 -8 8 -17q0 -6 -7 -13l-36 -30q-11 -9 -21 -9q-12 0 -22 11l-66 71h-5z" />
<glyph unicode="&#xc3;" horiz-adv-x="613" d="M15 0zM372 246q-6 24 -13.5 52t-15.5 58l-16 60t-15 56h-11q-8 -26 -16 -56t-15.5 -60t-15 -58t-13.5 -52h131zM477 0q-15 0 -24.5 2t-15 5.5t-8 10t-5.5 15.5l-23 83h-189l-23 -83q-3 -9 -5.5 -15.5t-8 -10.5t-15 -5.5t-24.5 -1.5h-87q-17 0 -25.5 4.5t-8.5 17.5 q0 5 3 16t11 39q42 141 80.5 270.5t80.5 254.5q8 25 23.5 35t47.5 10h91q32 0 47.5 -10t23.5 -35q42 -125 81.5 -254.5t81.5 -270.5q8 -28 11 -39t3 -16q0 -13 -8.5 -17.5t-25.5 -4.5h-89zM140 727q-8 5 -8 12q0 6 3 14q20 48 50 71.5t62 23.5q20 0 34.5 -5.5t28.5 -14.5 l19 -12q23 -14 35 -14t22 7.5t21 24.5q5 8 13 8q5 0 13 -5l38 -26q9 -8 9 -14t-4 -13.5t-8 -12.5q-46 -69 -107 -69q-30 0 -56 16l-20 13q-20 13 -34 13q-9 0 -18.5 -6.5t-23.5 -28.5q-6 -9 -14 -9q-5 0 -12 3z" />
<glyph unicode="&#xc4;" horiz-adv-x="613" d="M15 0zM372 246q-6 24 -13.5 52t-15.5 58l-16 60t-15 56h-11q-8 -26 -16 -56t-15.5 -60t-15 -58t-13.5 -52h131zM477 0q-15 0 -24.5 2t-15 5.5t-8 10t-5.5 15.5l-23 83h-189l-23 -83q-3 -9 -5.5 -15.5t-8 -10.5t-15 -5.5t-24.5 -1.5h-87q-17 0 -25.5 4.5t-8.5 17.5 q0 5 3 16t11 39q42 141 80.5 270.5t80.5 254.5q8 25 23.5 35t47.5 10h91q32 0 47.5 -10t23.5 -35q42 -125 81.5 -254.5t81.5 -270.5q8 -28 11 -39t3 -16q0 -13 -8.5 -17.5t-25.5 -4.5h-89zM216 860q28 0 46.5 -18t18.5 -47v-8q0 -29 -18.5 -47t-46.5 -18h-6q-28 0 -46.5 18 t-18.5 47v8q0 29 18.5 47t46.5 18h6zM403 860q28 0 46.5 -18t18.5 -47v-8q0 -29 -18.5 -47t-46.5 -18h-6q-28 0 -46.5 18t-18.5 47v8q0 29 18.5 47t46.5 18h6z" />
<glyph unicode="&#xc5;" horiz-adv-x="613" d="M15 0zM372 246q-6 24 -13.5 52t-15.5 58l-16 60t-15 56h-11q-8 -26 -16 -56t-15.5 -60t-15 -58t-13.5 -52h131zM477 0q-15 0 -24.5 2t-15 5.5t-8 10t-5.5 15.5l-23 83h-189l-23 -83q-3 -9 -5.5 -15.5t-8 -10.5t-15 -5.5t-24.5 -1.5h-87q-17 0 -25.5 4.5t-8.5 17.5 q0 5 3 16t11 39q42 141 80.5 270.5t80.5 254.5q8 25 23.5 35t47.5 10h91q32 0 47.5 -10t23.5 -35q42 -125 81.5 -254.5t81.5 -270.5q8 -28 11 -39t3 -16q0 -13 -8.5 -17.5t-25.5 -4.5h-89zM204 781q0 22 8 41t22 32.5t32.5 21t39.5 7.5q44 0 73 -28.5t29 -73.5t-29 -73.5 t-73 -28.5q-21 0 -39.5 7.5t-32.5 21t-22 32.5t-8 41zM277 781q0 -14 9 -21.5t20 -7.5t20 7.5t9 21.5t-9 21.5t-20 7.5t-20 -7.5t-9 -21.5z" />
<glyph unicode="&#xc6;" horiz-adv-x="866" d="M557 266v-109q0 -11 4.5 -16t17.5 -5h216q23 0 28.5 -5.5t5.5 -25.5v-74q0 -18 -5.5 -24.5t-28.5 -6.5h-241q-74 0 -113 21t-39 84v26h-173l-50 -104q-7 -14 -18 -20.5t-37 -6.5h-83q-20 0 -29 6.5t1 26.5q37 76 76 155t77 155l73 146t65 129q14 29 51 29h441 q24 0 28.5 -5.5t4.5 -25.5v-75q0 -18 -4.5 -24t-28.5 -6h-237v-119h208q19 0 25.5 -5.5t6.5 -23.5v-70q0 -16 -6.5 -21.5t-25.5 -5.5h-210zM285 263h117v248h-10z" />
<glyph unicode="&#xc7;" horiz-adv-x="561" d="M237 -8v4q-88 12 -134 62q-31 32 -44 81.5t-13 122.5v123q0 73 13.5 122t44.5 81q32 35 83 51.5t125 16.5h7q49 0 102.5 -11.5t93.5 -32.5q11 -6 14 -14t-2 -22l-33 -84q-6 -15 -17 -15q-9 0 -19 5q-32 16 -64.5 25t-67.5 9h-4q-64 0 -86 -36q-11 -19 -15 -47.5t-4 -71.5 v-71q0 -46 5.5 -77t22.5 -51q14 -15 36.5 -23t57.5 -8h4q27 0 62.5 8.5t61.5 19.5q4 2 7.5 3t8.5 1q6 0 10.5 -4.5t7.5 -16.5l17 -72q3 -12 3 -19q0 -9 -6 -15t-24 -13q-35 -14 -79.5 -22.5t-88.5 -9.5l-11 -44q15 3 35 3h2q35 0 58.5 -21t23.5 -66v-3q0 -57 -30 -80 t-87 -23h-5q-25 0 -52 4t-44 9q-10 4 -14 7.5t-4 11.5q0 3 0.5 8t1.5 10l4 25q3 15 13 15q3 0 9 -2q11 -4 29.5 -7t37.5 -3h3q29 0 29 20v2q0 9 -7 15t-22 6h-3q-8 0 -17 -1t-18 -3q-14 -3 -21 6l-11 14q-8 11 -8 15q0 6 4 19z" />
<glyph unicode="&#xc8;" horiz-adv-x="527" d="M52 0zM210 266q0 -31 1.5 -60t4.5 -52q2 -11 7 -14.5t15 -3.5h213q23 0 28.5 -5.5t5.5 -25.5v-74q0 -18 -5.5 -24.5t-28.5 -6.5h-241q-37 0 -64 4.5t-45.5 16.5t-28.5 32t-13 52q-5 46 -6 94.5t-1 98.5v61q0 32 1 75.5t5 85.5q3 39 13 63.5t28 38.5t46 19.5t68 5.5h239 q24 0 28.5 -5.5t4.5 -25.5v-75q0 -18 -4.5 -24t-28.5 -6h-212q-14 0 -19 -4.5t-6 -15.5q-1 -15 -1.5 -44t-1.5 -55h211q19 0 25.5 -5.5t6.5 -23.5v-70q0 -16 -6.5 -21.5t-25.5 -5.5h-213zM402 779q11 -7 11 -18q0 -9 -8 -21l-26 -38q-7 -9 -11.5 -13t-10.5 -4q-11 0 -21 5 l-169 89q-19 10 -19 24q0 10 7 21l38 62q3 5 7.5 10t11.5 5q8 0 19 -7z" />
<glyph unicode="&#xc9;" horiz-adv-x="527" d="M52 0zM210 266q0 -31 1.5 -60t4.5 -52q2 -11 7 -14.5t15 -3.5h213q23 0 28.5 -5.5t5.5 -25.5v-74q0 -18 -5.5 -24.5t-28.5 -6.5h-241q-37 0 -64 4.5t-45.5 16.5t-28.5 32t-13 52q-5 46 -6 94.5t-1 98.5v61q0 32 1 75.5t5 85.5q3 39 13 63.5t28 38.5t46 19.5t68 5.5h239 q24 0 28.5 -5.5t4.5 -25.5v-75q0 -18 -4.5 -24t-28.5 -6h-212q-14 0 -19 -4.5t-6 -15.5q-1 -15 -1.5 -44t-1.5 -55h211q19 0 25.5 -5.5t6.5 -23.5v-70q0 -16 -6.5 -21.5t-25.5 -5.5h-213zM359 894q11 7 19 7q7 0 11.5 -5t7.5 -10l38 -62q7 -11 7 -21q0 -14 -19 -24l-169 -89 q-10 -5 -21 -5q-6 0 -10.5 4t-11.5 13l-26 38q-8 12 -8 21q0 11 11 18z" />
<glyph unicode="&#xca;" horiz-adv-x="527" d="M52 0zM210 266q0 -31 1.5 -60t4.5 -52q2 -11 7 -14.5t15 -3.5h213q23 0 28.5 -5.5t5.5 -25.5v-74q0 -18 -5.5 -24.5t-28.5 -6.5h-241q-37 0 -64 4.5t-45.5 16.5t-28.5 32t-13 52q-5 46 -6 94.5t-1 98.5v61q0 32 1 75.5t5 85.5q3 39 13 63.5t28 38.5t46 19.5t68 5.5h239 q24 0 28.5 -5.5t4.5 -25.5v-75q0 -18 -4.5 -24t-28.5 -6h-212q-14 0 -19 -4.5t-6 -15.5q-1 -15 -1.5 -44t-1.5 -55h211q19 0 25.5 -5.5t6.5 -23.5v-70q0 -16 -6.5 -21.5t-25.5 -5.5h-213zM219 704q-10 -11 -22 -11q-11 0 -21 9l-36 30q-7 7 -7 13q0 9 8 17l88 102 q8 8 14 10.5t14 2.5h61q8 0 14 -2.5t14 -10.5l88 -102q8 -8 8 -17q0 -6 -7 -13l-36 -30q-11 -9 -21 -9q-12 0 -22 11l-66 71h-5z" />
<glyph unicode="&#xcb;" horiz-adv-x="527" d="M52 0zM210 266q0 -31 1.5 -60t4.5 -52q2 -11 7 -14.5t15 -3.5h213q23 0 28.5 -5.5t5.5 -25.5v-74q0 -18 -5.5 -24.5t-28.5 -6.5h-241q-37 0 -64 4.5t-45.5 16.5t-28.5 32t-13 52q-5 46 -6 94.5t-1 98.5v61q0 32 1 75.5t5 85.5q3 39 13 63.5t28 38.5t46 19.5t68 5.5h239 q24 0 28.5 -5.5t4.5 -25.5v-75q0 -18 -4.5 -24t-28.5 -6h-212q-14 0 -19 -4.5t-6 -15.5q-1 -15 -1.5 -44t-1.5 -55h211q19 0 25.5 -5.5t6.5 -23.5v-70q0 -16 -6.5 -21.5t-25.5 -5.5h-213zM198 860q28 0 46.5 -18t18.5 -47v-8q0 -29 -18.5 -47t-46.5 -18h-6q-28 0 -46.5 18 t-18.5 47v8q0 29 18.5 47t46.5 18h6zM385 860q28 0 46.5 -18t18.5 -47v-8q0 -29 -18.5 -47t-46.5 -18h-6q-28 0 -46.5 18t-18.5 47v8q0 29 18.5 47t46.5 18h6z" />
<glyph unicode="&#xcc;" horiz-adv-x="300" d="M0 0zM234 31q0 -21 -6 -26t-29 -5h-98q-23 0 -29 5t-6 26v585q0 21 6 26t29 5h98q23 0 29 -5t6 -26v-585zM248 779q11 -7 11 -18q0 -9 -8 -21l-26 -38q-7 -9 -11.5 -13t-10.5 -4q-11 0 -21 5l-169 89q-19 10 -19 24q0 10 7 21l38 62q3 5 7.5 10t11.5 5q8 0 19 -7z" />
<glyph unicode="&#xcd;" horiz-adv-x="300" d="M44 0zM234 31q0 -21 -6 -26t-29 -5h-98q-23 0 -29 5t-6 26v585q0 21 6 26t29 5h98q23 0 29 -5t6 -26v-585zM226 894q11 7 19 7q7 0 11.5 -5t7.5 -10l38 -62q7 -11 7 -21q0 -14 -19 -24l-169 -89q-10 -5 -21 -5q-6 0 -10.5 4t-11.5 13l-26 38q-8 12 -8 21q0 11 11 18z" />
<glyph unicode="&#xce;" horiz-adv-x="300" d="M0 0zM234 31q0 -21 -6 -26t-29 -5h-98q-23 0 -29 5t-6 26v585q0 21 6 26t29 5h98q23 0 29 -5t6 -26v-585zM82 704q-10 -11 -22 -11q-11 0 -21 9l-36 30q-7 7 -7 13q0 9 8 17l88 102q8 8 14 10.5t14 2.5h61q8 0 14 -2.5t14 -10.5l88 -102q8 -8 8 -17q0 -6 -7 -13l-36 -30 q-11 -9 -21 -9q-12 0 -22 11l-66 71h-5z" />
<glyph unicode="&#xcf;" horiz-adv-x="300" d="M0 0zM234 31q0 -21 -6 -26t-29 -5h-98q-23 0 -29 5t-6 26v585q0 21 6 26t29 5h98q23 0 29 -5t6 -26v-585zM62 860q28 0 46.5 -18t18.5 -47v-8q0 -29 -18.5 -47t-46.5 -18h-6q-28 0 -46.5 18t-18.5 47v8q0 29 18.5 47t46.5 18h6zM249 860q28 0 46.5 -18t18.5 -47v-8 q0 -29 -18.5 -47t-46.5 -18h-6q-28 0 -46.5 18t-18.5 47v8q0 29 18.5 47t46.5 18h6z" />
<glyph unicode="&#xd0;" horiz-adv-x="656" d="M4 0zM259 0q-38 0 -78 1t-60 3q-38 4 -38 39v225h-54q-14 0 -19.5 6t-5.5 22v54q0 14 5.5 21t19.5 7h54v210q0 31 9 41t35 13q30 3 69.5 5t87.5 2h16q80 0 139 -15t98 -48.5t58 -88t19 -132.5v-76q0 -152 -82 -220.5t-258 -68.5h-15zM251 268v-107q0 -13 4 -17t12 -5 q10 -1 23.5 -1h21.5h8q60 0 91.5 39.5t31.5 124.5v49q0 46 -8 77t-24 50t-39.5 26.5t-53.5 7.5h-7q-9 0 -22 -0.5t-21 -1.5q-17 -1 -17 -17v-115h68q14 0 19.5 -7t5.5 -21v-54q0 -16 -5.5 -22t-19.5 -6h-68z" />
<glyph unicode="&#xd1;" horiz-adv-x="649" d="M64 0zM222 337h-2v-303q0 -21 -7.5 -27.5t-27.5 -6.5h-84q-20 0 -28.5 6.5t-8.5 27.5v580q0 20 8 26.5t27 6.5h44q24 0 38 -5.5t26 -22.5l220 -328h2v322q0 21 8.5 27.5t28.5 6.5h84q20 0 27.5 -6.5t7.5 -27.5v-580q0 -20 -8 -26.5t-27 -6.5h-44q-24 0 -38 5.5t-26 22.5z M160 727q-8 5 -8 12q0 6 3 14q20 48 50 71.5t62 23.5q20 0 34.5 -5.5t28.5 -14.5l19 -12q23 -14 35 -14t22 7.5t21 24.5q5 8 13 8q5 0 13 -5l38 -26q9 -8 9 -14t-4 -13.5t-8 -12.5q-46 -69 -107 -69q-30 0 -56 16l-20 13q-20 13 -34 13q-9 0 -18.5 -6.5t-23.5 -28.5 q-6 -9 -14 -9q-5 0 -12 3z" />
<glyph unicode="&#xd2;" horiz-adv-x="636" d="M46 0zM419 342q0 56 -5 94t-23 56q-12 12 -27.5 18t-38.5 6h-14q-23 0 -38.5 -6t-27.5 -18q-18 -18 -23 -56t-5 -94v-37q0 -56 5 -94t23 -56q12 -12 27.5 -18t38.5 -6h14q23 0 38.5 6t27.5 18q18 18 23 56t5 94v37zM590 285q0 -87 -18.5 -148.5t-65.5 -98.5 q-29 -23 -74 -35t-110 -12h-8q-65 0 -110 12t-74 35q-47 37 -65.5 98.5t-18.5 148.5v77q0 87 18.5 148.5t65.5 98.5q29 23 74 35t110 12h8q65 0 110 -12t74 -35q47 -37 65.5 -98.5t18.5 -148.5v-77zM428 779q11 -7 11 -18q0 -9 -8 -21l-26 -38q-7 -9 -11.5 -13t-10.5 -4 q-11 0 -21 5l-169 89q-19 10 -19 24q0 10 7 21l38 62q3 5 7.5 10t11.5 5q8 0 19 -7z" />
<glyph unicode="&#xd3;" horiz-adv-x="636" d="M46 0zM419 342q0 56 -5 94t-23 56q-12 12 -27.5 18t-38.5 6h-14q-23 0 -38.5 -6t-27.5 -18q-18 -18 -23 -56t-5 -94v-37q0 -56 5 -94t23 -56q12 -12 27.5 -18t38.5 -6h14q23 0 38.5 6t27.5 18q18 18 23 56t5 94v37zM590 285q0 -87 -18.5 -148.5t-65.5 -98.5 q-29 -23 -74 -35t-110 -12h-8q-65 0 -110 12t-74 35q-47 37 -65.5 98.5t-18.5 148.5v77q0 87 18.5 148.5t65.5 98.5q29 23 74 35t110 12h8q65 0 110 -12t74 -35q47 -37 65.5 -98.5t18.5 -148.5v-77zM384 894q11 7 19 7q7 0 11.5 -5t7.5 -10l38 -62q7 -11 7 -21 q0 -14 -19 -24l-169 -89q-10 -5 -21 -5q-6 0 -10.5 4t-11.5 13l-26 38q-8 12 -8 21q0 11 11 18z" />
<glyph unicode="&#xd4;" horiz-adv-x="636" d="M46 0zM419 342q0 56 -5 94t-23 56q-12 12 -27.5 18t-38.5 6h-14q-23 0 -38.5 -6t-27.5 -18q-18 -18 -23 -56t-5 -94v-37q0 -56 5 -94t23 -56q12 -12 27.5 -18t38.5 -6h14q23 0 38.5 6t27.5 18q18 18 23 56t5 94v37zM590 285q0 -87 -18.5 -148.5t-65.5 -98.5 q-29 -23 -74 -35t-110 -12h-8q-65 0 -110 12t-74 35q-47 37 -65.5 98.5t-18.5 148.5v77q0 87 18.5 148.5t65.5 98.5q29 23 74 35t110 12h8q65 0 110 -12t74 -35q47 -37 65.5 -98.5t18.5 -148.5v-77zM247 704q-10 -11 -22 -11q-11 0 -21 9l-36 30q-7 7 -7 13q0 9 8 17l88 102 q8 8 14 10.5t14 2.5h61q8 0 14 -2.5t14 -10.5l88 -102q8 -8 8 -17q0 -6 -7 -13l-36 -30q-11 -9 -21 -9q-12 0 -22 11l-66 71h-5z" />
<glyph unicode="&#xd5;" horiz-adv-x="636" d="M46 0zM419 342q0 56 -5 94t-23 56q-12 12 -27.5 18t-38.5 6h-14q-23 0 -38.5 -6t-27.5 -18q-18 -18 -23 -56t-5 -94v-37q0 -56 5 -94t23 -56q12 -12 27.5 -18t38.5 -6h14q23 0 38.5 6t27.5 18q18 18 23 56t5 94v37zM590 285q0 -87 -18.5 -148.5t-65.5 -98.5 q-29 -23 -74 -35t-110 -12h-8q-65 0 -110 12t-74 35q-47 37 -65.5 98.5t-18.5 148.5v77q0 87 18.5 148.5t65.5 98.5q29 23 74 35t110 12h8q65 0 110 -12t74 -35q47 -37 65.5 -98.5t18.5 -148.5v-77zM149 727q-8 5 -8 12q0 6 3 14q20 48 50 71.5t62 23.5q20 0 34.5 -5.5 t28.5 -14.5l19 -12q23 -14 35 -14t22 7.5t21 24.5q5 8 13 8q5 0 13 -5l38 -26q9 -8 9 -14t-4 -13.5t-8 -12.5q-46 -69 -107 -69q-30 0 -56 16l-20 13q-20 13 -34 13q-9 0 -18.5 -6.5t-23.5 -28.5q-6 -9 -14 -9q-5 0 -12 3z" />
<glyph unicode="&#xd6;" horiz-adv-x="636" d="M46 0zM419 342q0 56 -5 94t-23 56q-12 12 -27.5 18t-38.5 6h-14q-23 0 -38.5 -6t-27.5 -18q-18 -18 -23 -56t-5 -94v-37q0 -56 5 -94t23 -56q12 -12 27.5 -18t38.5 -6h14q23 0 38.5 6t27.5 18q18 18 23 56t5 94v37zM590 285q0 -87 -18.5 -148.5t-65.5 -98.5 q-29 -23 -74 -35t-110 -12h-8q-65 0 -110 12t-74 35q-47 37 -65.5 98.5t-18.5 148.5v77q0 87 18.5 148.5t65.5 98.5q29 23 74 35t110 12h8q65 0 110 -12t74 -35q47 -37 65.5 -98.5t18.5 -148.5v-77zM223 860q28 0 46.5 -18t18.5 -47v-8q0 -29 -18.5 -47t-46.5 -18h-6 q-28 0 -46.5 18t-18.5 47v8q0 29 18.5 47t46.5 18h6zM410 860q28 0 46.5 -18t18.5 -47v-8q0 -29 -18.5 -47t-46.5 -18h-6q-28 0 -46.5 18t-18.5 47v8q0 29 18.5 47t46.5 18h6z" />
<glyph unicode="&#xd7;" d="M393 264l94 -94q17 -17 14.5 -28.5t-17.5 -26.5l-51 -51q-15 -15 -26.5 -17.5t-28.5 14.5l-94 94l-91 -91q-14 -15 -25 -14.5t-25 14.5l-44 44q-15 15 -16.5 27t13.5 26l91 91l-94 94q-17 17 -14.5 28.5t17.5 26.5l51 51q15 15 26.5 17.5t28.5 -14.5l94 -94l91 91 q14 15 26 13.5t27 -16.5l44 -44q14 -14 14.5 -25t-14.5 -25z" />
<glyph unicode="&#xd8;" horiz-adv-x="636" d="M590 285q0 -87 -18.5 -148.5t-65.5 -98.5q-29 -23 -73.5 -35t-109.5 -12h-10q-66 0 -111 12l-31 -55q-11 -21 -23 -21q-5 0 -10 2t-13 6l-29 14q-10 5 -13 9.5t-3 10.5t2.5 12t5.5 12l30 55q-40 38 -56 97t-16 140v77q0 87 18.5 148.5t65.5 98.5q29 23 73.5 35t109.5 12 h10q73 0 124 -17l38 69q6 11 11 15t11 4q9 0 23 -7l21 -11q14 -8 18.5 -13t4.5 -10q0 -7 -4 -15.5t-11 -20.5l-33 -60q35 -38 49.5 -95t14.5 -133v-77zM217 305v-40.5t2 -34.5l153 276q-17 10 -47 10h-14q-23 0 -38.5 -6t-27.5 -18q-18 -18 -23 -56t-5 -94v-37zM419 342v27 t-1 25l-143 -258q8 -3 16.5 -4t19.5 -1h14q23 0 38.5 6t27.5 18q18 18 23 56t5 94v37z" />
<glyph unicode="&#xd9;" horiz-adv-x="630" d="M54 0zM408 616q0 21 5.5 26t29.5 5h98q24 0 29.5 -5t5.5 -26v-390q0 -66 -13.5 -107t-47.5 -73q-61 -55 -194 -55h-12q-70 0 -117.5 14t-77.5 41q-34 32 -47 76t-13 104v390q0 21 5.5 26t29.5 5h98q24 0 30 -5t6 -26v-385q0 -30 4.5 -49.5t15.5 -30.5q20 -20 70 -20h5 q50 0 70 20q11 11 15.5 30.5t4.5 49.5v385zM436 779q11 -7 11 -18q0 -9 -8 -21l-26 -38q-7 -9 -11.5 -13t-10.5 -4q-11 0 -21 5l-169 89q-19 10 -19 24q0 10 7 21l38 62q3 5 7.5 10t11.5 5q8 0 19 -7z" />
<glyph unicode="&#xda;" horiz-adv-x="630" d="M54 0zM408 616q0 21 5.5 26t29.5 5h98q24 0 29.5 -5t5.5 -26v-390q0 -66 -13.5 -107t-47.5 -73q-61 -55 -194 -55h-12q-70 0 -117.5 14t-77.5 41q-34 32 -47 76t-13 104v390q0 21 5.5 26t29.5 5h98q24 0 30 -5t6 -26v-385q0 -30 4.5 -49.5t15.5 -30.5q20 -20 70 -20h5 q50 0 70 20q11 11 15.5 30.5t4.5 49.5v385zM364 894q11 7 19 7q7 0 11.5 -5t7.5 -10l38 -62q7 -11 7 -21q0 -14 -19 -24l-169 -89q-10 -5 -21 -5q-6 0 -10.5 4t-11.5 13l-26 38q-8 12 -8 21q0 11 11 18z" />
<glyph unicode="&#xdb;" horiz-adv-x="630" d="M54 0zM408 616q0 21 5.5 26t29.5 5h98q24 0 29.5 -5t5.5 -26v-390q0 -66 -13.5 -107t-47.5 -73q-61 -55 -194 -55h-12q-70 0 -117.5 14t-77.5 41q-34 32 -47 76t-13 104v390q0 21 5.5 26t29.5 5h98q24 0 30 -5t6 -26v-385q0 -30 4.5 -49.5t15.5 -30.5q20 -20 70 -20h5 q50 0 70 20q11 11 15.5 30.5t4.5 49.5v385zM246 704q-10 -11 -22 -11q-11 0 -21 9l-36 30q-7 7 -7 13q0 9 8 17l88 102q8 8 14 10.5t14 2.5h61q8 0 14 -2.5t14 -10.5l88 -102q8 -8 8 -17q0 -6 -7 -13l-36 -30q-11 -9 -21 -9q-12 0 -22 11l-66 71h-5z" />
<glyph unicode="&#xdc;" horiz-adv-x="630" d="M54 0zM408 616q0 21 5.5 26t29.5 5h98q24 0 29.5 -5t5.5 -26v-390q0 -66 -13.5 -107t-47.5 -73q-61 -55 -194 -55h-12q-70 0 -117.5 14t-77.5 41q-34 32 -47 76t-13 104v390q0 21 5.5 26t29.5 5h98q24 0 30 -5t6 -26v-385q0 -30 4.5 -49.5t15.5 -30.5q20 -20 70 -20h5 q50 0 70 20q11 11 15.5 30.5t4.5 49.5v385zM224 860q28 0 46.5 -18t18.5 -47v-8q0 -29 -18.5 -47t-46.5 -18h-6q-28 0 -46.5 18t-18.5 47v8q0 29 18.5 47t46.5 18h6zM411 860q28 0 46.5 -18t18.5 -47v-8q0 -29 -18.5 -47t-46.5 -18h-6q-28 0 -46.5 18t-18.5 47v8 q0 29 18.5 47t46.5 18h6z" />
<glyph unicode="&#xdd;" horiz-adv-x="534" d="M2 0zM215 0q-19 0 -25.5 6.5t-6.5 24.5v160q-22 42 -46 93.5t-47.5 107.5t-43.5 112.5t-35 109.5q-9 33 19 33h105q22 0 30 -2.5t13 -21.5q8 -32 19 -69.5t23 -75.5t24 -74t23 -65h5q11 29 23 65t23.5 74t22 75.5t18.5 69.5q5 19 13 21.5t30 2.5h102q28 0 19 -33 q-15 -53 -35 -109.5t-43 -112t-47 -107t-46 -93.5v-161q0 -18 -6.5 -24.5t-25.5 -6.5h-105zM347 894q11 7 19 7q7 0 11.5 -5t7.5 -10l38 -62q7 -11 7 -21q0 -14 -19 -24l-169 -89q-10 -5 -21 -5q-6 0 -10.5 4t-11.5 13l-26 38q-8 12 -8 21q0 11 11 18z" />
<glyph unicode="&#xde;" horiz-adv-x="561" d="M232 553h59q63 0 109.5 -9t77 -31.5t46 -60t15.5 -94.5v-52q0 -57 -18 -95t-52 -60.5t-81.5 -32t-107.5 -9.5h-48v-78q0 -18 -9 -24.5t-26 -6.5h-98q-18 0 -26.5 6.5t-8.5 24.5v594q0 18 8.5 24.5t26.5 6.5h98q17 0 26 -6.5t9 -24.5v-72zM284 416q-9 0 -25 -0.5t-27 -1.5 v-163h45q51 0 71 15t20 53v33q0 35 -17.5 49.5t-55.5 14.5h-11z" />
<glyph unicode="&#xdf;" horiz-adv-x="587" d="M85 -84q-20 0 -27 5.5t-7 25.5v520q0 61 14 102.5t43.5 67.5t74.5 37.5t107 11.5h9q58 0 100 -12.5t70 -35.5t41.5 -55t13.5 -70v-7q0 -61 -17.5 -95.5t-47.5 -49.5v-3q55 -16 74.5 -56.5t19.5 -94.5v-18q0 -54 -13 -91.5t-37 -61.5t-59 -34.5t-79 -10.5h-11q-23 0 -49 2 t-43 5t-17 13q0 6 0.5 13.5t1.5 18.5l5 59q1 17 15 17q4 0 14 -2q7 -1 18 -2t22 -1h3q36 0 51.5 18.5t15.5 64.5v14q0 48 -23.5 64.5t-65.5 16.5h-25q-22 0 -22 21v76q0 21 22 21h18q34 0 51 15t17 58v9q0 32 -17 49t-54 17h-6q-35 0 -55 -19t-20 -72v-520q0 -20 -7 -25.5 t-27 -5.5h-92z" />
<glyph unicode="&#xe0;" horiz-adv-x="508" d="M30 0zM338 41q-15 -23 -49 -36.5t-82 -13.5h-15q-75 0 -118.5 39t-43.5 115v11q0 84 48 116t149 32h7q20 0 39.5 -1t30.5 -3v21q0 15 -3 25.5t-14 18.5q-9 6 -22 8.5t-38 2.5q-26 0 -56.5 -4.5t-59.5 -12.5q-19 -5 -25.5 0.5t-8.5 18.5l-8 53q-1 5 -1.5 11t-0.5 9 q0 10 4.5 15.5t19.5 10.5q32 9 76 15.5t95 6.5q60 0 100 -12t64 -37q38 -39 38 -125v-297q0 -15 -7 -21.5t-27 -6.5h-47q-17 0 -24.5 4.5t-12.5 18.5l-6 18h-2zM304 197q-8 2 -22.5 2.5t-25.5 0.5h-11q-35 0 -50 -8.5t-15 -36.5v-4q0 -28 15 -37t41 -9h7q17 0 28.5 4.5 t18.5 10.5q8 8 11 18.5t3 30.5v28zM367 622q9 -6 9 -16q0 -9 -11 -23l-30 -35q-8 -8 -12 -11t-12 -3q-10 0 -20 7l-158 108q-8 6 -12 11t-4 13q0 9 6 17l48 62q9 13 20 13q9 0 19 -9z" />
<glyph unicode="&#xe1;" horiz-adv-x="508" d="M30 0zM338 41q-15 -23 -49 -36.5t-82 -13.5h-15q-75 0 -118.5 39t-43.5 115v11q0 84 48 116t149 32h7q20 0 39.5 -1t30.5 -3v21q0 15 -3 25.5t-14 18.5q-9 6 -22 8.5t-38 2.5q-26 0 -56.5 -4.5t-59.5 -12.5q-19 -5 -25.5 0.5t-8.5 18.5l-8 53q-1 5 -1.5 11t-0.5 9 q0 10 4.5 15.5t19.5 10.5q32 9 76 15.5t95 6.5q60 0 100 -12t64 -37q38 -39 38 -125v-297q0 -15 -7 -21.5t-27 -6.5h-47q-17 0 -24.5 4.5t-12.5 18.5l-6 18h-2zM304 197q-8 2 -22.5 2.5t-25.5 0.5h-11q-35 0 -50 -8.5t-15 -36.5v-4q0 -28 15 -37t41 -9h7q17 0 28.5 4.5 t18.5 10.5q8 8 11 18.5t3 30.5v28zM324 756q10 9 19 9q11 0 20 -13l48 -62q6 -8 6 -17q0 -8 -4 -13t-12 -11l-158 -108q-11 -7 -20 -7q-8 0 -12 3t-12 11l-30 35q-11 14 -11 23q0 10 9 16z" />
<glyph unicode="&#xe2;" horiz-adv-x="508" d="M30 0zM338 41q-15 -23 -49 -36.5t-82 -13.5h-15q-75 0 -118.5 39t-43.5 115v11q0 84 48 116t149 32h7q20 0 39.5 -1t30.5 -3v21q0 15 -3 25.5t-14 18.5q-9 6 -22 8.5t-38 2.5q-26 0 -56.5 -4.5t-59.5 -12.5q-19 -5 -25.5 0.5t-8.5 18.5l-8 53q-1 5 -1.5 11t-0.5 9 q0 10 4.5 15.5t19.5 10.5q32 9 76 15.5t95 6.5q60 0 100 -12t64 -37q38 -39 38 -125v-297q0 -15 -7 -21.5t-27 -6.5h-47q-17 0 -24.5 4.5t-12.5 18.5l-6 18h-2zM304 197q-8 2 -22.5 2.5t-25.5 0.5h-11q-35 0 -50 -8.5t-15 -36.5v-4q0 -28 15 -37t41 -9h7q17 0 28.5 4.5 t18.5 10.5q8 8 11 18.5t3 30.5v28zM194 539q-10 -11 -22 -11q-11 0 -21 9l-36 30q-7 7 -7 13q0 9 8 17l88 102q8 8 14 10.5t14 2.5h61q8 0 14 -2.5t14 -10.5l88 -102q8 -8 8 -17q0 -6 -7 -13l-36 -30q-11 -9 -21 -9q-12 0 -22 11l-66 71h-5z" />
<glyph unicode="&#xe3;" horiz-adv-x="508" d="M30 0zM338 41q-15 -23 -49 -36.5t-82 -13.5h-15q-75 0 -118.5 39t-43.5 115v11q0 84 48 116t149 32h7q20 0 39.5 -1t30.5 -3v21q0 15 -3 25.5t-14 18.5q-9 6 -22 8.5t-38 2.5q-26 0 -56.5 -4.5t-59.5 -12.5q-19 -5 -25.5 0.5t-8.5 18.5l-8 53q-1 5 -1.5 11t-0.5 9 q0 10 4.5 15.5t19.5 10.5q32 9 76 15.5t95 6.5q60 0 100 -12t64 -37q38 -39 38 -125v-297q0 -15 -7 -21.5t-27 -6.5h-47q-17 0 -24.5 4.5t-12.5 18.5l-6 18h-2zM304 197q-8 2 -22.5 2.5t-25.5 0.5h-11q-35 0 -50 -8.5t-15 -36.5v-4q0 -28 15 -37t41 -9h7q17 0 28.5 4.5 t18.5 10.5q8 8 11 18.5t3 30.5v28zM104 566q-8 5 -8 12q0 6 3 14q20 48 50 71.5t62 23.5q20 0 34.5 -5.5t28.5 -14.5l19 -12q23 -14 35 -14t22 7.5t21 24.5q5 8 13 8q5 0 13 -5l38 -26q9 -8 9 -14t-4 -13.5t-8 -12.5q-46 -69 -107 -69q-30 0 -56 16l-20 13q-20 13 -34 13 q-9 0 -18.5 -6.5t-23.5 -28.5q-6 -9 -14 -9q-5 0 -12 3z" />
<glyph unicode="&#xe4;" horiz-adv-x="508" d="M30 0zM338 41q-15 -23 -49 -36.5t-82 -13.5h-15q-75 0 -118.5 39t-43.5 115v11q0 84 48 116t149 32h7q20 0 39.5 -1t30.5 -3v21q0 15 -3 25.5t-14 18.5q-9 6 -22 8.5t-38 2.5q-26 0 -56.5 -4.5t-59.5 -12.5q-19 -5 -25.5 0.5t-8.5 18.5l-8 53q-1 5 -1.5 11t-0.5 9 q0 10 4.5 15.5t19.5 10.5q32 9 76 15.5t95 6.5q60 0 100 -12t64 -37q38 -39 38 -125v-297q0 -15 -7 -21.5t-27 -6.5h-47q-17 0 -24.5 4.5t-12.5 18.5l-6 18h-2zM304 197q-8 2 -22.5 2.5t-25.5 0.5h-11q-35 0 -50 -8.5t-15 -36.5v-4q0 -28 15 -37t41 -9h7q17 0 28.5 4.5 t18.5 10.5q8 8 11 18.5t3 30.5v28zM180 695q28 0 46.5 -18t18.5 -47v-8q0 -29 -18.5 -47t-46.5 -18h-6q-28 0 -46.5 18t-18.5 47v8q0 29 18.5 47t46.5 18h6zM367 695q28 0 46.5 -18t18.5 -47v-8q0 -29 -18.5 -47t-46.5 -18h-6q-28 0 -46.5 18t-18.5 47v8q0 29 18.5 47 t46.5 18h6z" />
<glyph unicode="&#xe5;" horiz-adv-x="508" d="M30 0zM338 41q-15 -23 -49 -36.5t-82 -13.5h-15q-75 0 -118.5 39t-43.5 115v11q0 84 48 116t149 32h7q20 0 39.5 -1t30.5 -3v21q0 15 -3 25.5t-14 18.5q-9 6 -22 8.5t-38 2.5q-26 0 -56.5 -4.5t-59.5 -12.5q-19 -5 -25.5 0.5t-8.5 18.5l-8 53q-1 5 -1.5 11t-0.5 9 q0 10 4.5 15.5t19.5 10.5q32 9 76 15.5t95 6.5q60 0 100 -12t64 -37q38 -39 38 -125v-297q0 -15 -7 -21.5t-27 -6.5h-47q-17 0 -24.5 4.5t-12.5 18.5l-6 18h-2zM304 197q-8 2 -22.5 2.5t-25.5 0.5h-11q-35 0 -50 -8.5t-15 -36.5v-4q0 -28 15 -37t41 -9h7q17 0 28.5 4.5 t18.5 10.5q8 8 11 18.5t3 30.5v28zM156 628q0 22 8 41t22 32.5t32.5 21t39.5 7.5q44 0 73 -28.5t29 -73.5t-29 -73.5t-73 -28.5q-21 0 -39.5 7.5t-32.5 21t-22 32.5t-8 41zM229 628q0 -14 9 -21.5t20 -7.5t20 7.5t9 21.5t-9 21.5t-20 7.5t-20 -7.5t-9 -21.5z" />
<glyph unicode="&#xe6;" horiz-adv-x="768" d="M569 120q24 0 55.5 4t50.5 9q4 1 9 2t10 1q15 0 18 -17l8 -50q2 -8 3 -15t1 -12q0 -10 -5 -16t-21 -11q-30 -11 -72 -17.5t-79 -6.5h-19q-60 0 -100 14.5t-64 40.5h-2q-23 -27 -56 -41t-93 -14h-15q-168 0 -168 154v11q0 84 48 116t149 32h7q20 0 39.5 -1t30.5 -3v21 q0 15 -3 25.5t-14 18.5q-9 6 -22 8.5t-38 2.5q-26 0 -56.5 -4.5t-59.5 -12.5q-19 -5 -25.5 0.5t-8.5 18.5l-8 53q-1 6 -1.5 11.5t-0.5 8.5q0 10 4.5 15.5t19.5 10.5q32 9 76 15.5t95 6.5q44 0 78.5 -12.5t48.5 -35.5q19 22 54.5 35t77.5 13h14q54 0 92.5 -13.5t58.5 -36.5 q26 -29 37 -71.5t11 -107.5v-52q0 -16 -7 -22t-22 -6h-240v-8q0 -35 20 -48.5t73 -13.5h11zM304 197q-8 2 -22.5 2.5t-25.5 0.5h-11q-35 0 -50 -8.5t-15 -36.5v-4q0 -28 15 -37t41 -9h7q17 0 28.5 4.5t18.5 10.5q8 8 11 18.5t3 30.5v28zM575 294q12 0 12 13v16q0 30 -10 46 q-12 18 -46 18h-9q-29 0 -42 -14q-15 -17 -15 -54v-25h110z" />
<glyph unicode="&#xe7;" horiz-adv-x="454" d="M261 499q40 0 82.5 -9t71.5 -24q19 -10 19 -25q0 -6 -2 -13t-6 -17l-19 -48q-7 -18 -21 -18q-6 0 -18 5q-19 8 -42 14t-43 6h-8q-38 0 -57 -19q-15 -15 -18.5 -36.5t-3.5 -55.5v-34q0 -34 4.5 -52.5t15.5 -31.5q19 -21 65 -21h8q20 0 44 4t43 9q4 1 9 2t10 1q15 0 18 -17 l9 -51q2 -8 3 -15t1 -12q0 -10 -5 -16t-21 -11q-27 -10 -57 -15.5t-67 -7.5l-3 -12l-8 -32q15 3 35 3h2q35 0 58.5 -21t23.5 -66v-3q0 -54 -30 -78.5t-87 -24.5h-5q-25 0 -52 4t-44 9q-10 4 -14 7.5t-4 11.5q0 3 0.5 8t1.5 10l4 25q3 15 13 15q3 0 9 -2q11 -4 29.5 -7 t37.5 -3h3q29 0 29 20v2q0 9 -7 15t-22 6h-3q-8 0 -17 -1t-18 -3q-14 -3 -21 6l-11 14q-8 11 -8 15q0 6 4 19l18 64v3q-69 9 -104 46q-29 29 -40 70.5t-11 100.5v58q0 37 3 64t9.5 48t16 36t22.5 28q26 26 65.5 39.5t99.5 13.5h10z" />
<glyph unicode="&#xe8;" horiz-adv-x="499" d="M35 0zM300 120q24 0 55.5 4t50.5 9q4 1 9 2t10 1q15 0 18 -17l8 -50q2 -8 3 -15t1 -12q0 -10 -5 -16t-21 -11q-30 -11 -72 -17.5t-79 -6.5h-19q-60 0 -104 12.5t-70 38.5q-30 30 -40 70.5t-10 101.5v56q0 75 17 118t43 66q51 45 157 45h14q54 0 92.5 -13.5t58.5 -36.5 q26 -29 37 -71.5t11 -107.5v-52q0 -16 -7 -22t-22 -6h-240v-8q0 -35 20 -48.5t73 -13.5h11zM306 294q12 0 12 13v16q0 30 -10 46q-12 18 -46 18h-9q-29 0 -42 -14q-15 -17 -15 -54v-25h110zM361 622q9 -6 9 -16q0 -9 -11 -23l-30 -35q-8 -8 -12 -11t-12 -3q-10 0 -20 7 l-158 108q-8 6 -12 11t-4 13q0 9 6 17l48 62q9 13 20 13q9 0 19 -9z" />
<glyph unicode="&#xe9;" horiz-adv-x="499" d="M35 0zM300 120q24 0 55.5 4t50.5 9q4 1 9 2t10 1q15 0 18 -17l8 -50q2 -8 3 -15t1 -12q0 -10 -5 -16t-21 -11q-30 -11 -72 -17.5t-79 -6.5h-19q-60 0 -104 12.5t-70 38.5q-30 30 -40 70.5t-10 101.5v56q0 75 17 118t43 66q51 45 157 45h14q54 0 92.5 -13.5t58.5 -36.5 q26 -29 37 -71.5t11 -107.5v-52q0 -16 -7 -22t-22 -6h-240v-8q0 -35 20 -48.5t73 -13.5h11zM306 294q12 0 12 13v16q0 30 -10 46q-12 18 -46 18h-9q-29 0 -42 -14q-15 -17 -15 -54v-25h110zM329 756q10 9 19 9q11 0 20 -13l48 -62q6 -8 6 -17q0 -8 -4 -13t-12 -11l-158 -108 q-11 -7 -20 -7q-8 0 -12 3t-12 11l-30 35q-11 14 -11 23q0 10 9 16z" />
<glyph unicode="&#xea;" horiz-adv-x="499" d="M35 0zM300 120q24 0 55.5 4t50.5 9q4 1 9 2t10 1q15 0 18 -17l8 -50q2 -8 3 -15t1 -12q0 -10 -5 -16t-21 -11q-30 -11 -72 -17.5t-79 -6.5h-19q-60 0 -104 12.5t-70 38.5q-30 30 -40 70.5t-10 101.5v56q0 75 17 118t43 66q51 45 157 45h14q54 0 92.5 -13.5t58.5 -36.5 q26 -29 37 -71.5t11 -107.5v-52q0 -16 -7 -22t-22 -6h-240v-8q0 -35 20 -48.5t73 -13.5h11zM306 294q12 0 12 13v16q0 30 -10 46q-12 18 -46 18h-9q-29 0 -42 -14q-15 -17 -15 -54v-25h110zM189 539q-10 -11 -22 -11q-11 0 -21 9l-36 30q-7 7 -7 13q0 9 8 17l88 102 q8 8 14 10.5t14 2.5h61q8 0 14 -2.5t14 -10.5l88 -102q8 -8 8 -17q0 -6 -7 -13l-36 -30q-11 -9 -21 -9q-12 0 -22 11l-66 71h-5z" />
<glyph unicode="&#xeb;" horiz-adv-x="499" d="M35 0zM300 120q24 0 55.5 4t50.5 9q4 1 9 2t10 1q15 0 18 -17l8 -50q2 -8 3 -15t1 -12q0 -10 -5 -16t-21 -11q-30 -11 -72 -17.5t-79 -6.5h-19q-60 0 -104 12.5t-70 38.5q-30 30 -40 70.5t-10 101.5v56q0 75 17 118t43 66q51 45 157 45h14q54 0 92.5 -13.5t58.5 -36.5 q26 -29 37 -71.5t11 -107.5v-52q0 -16 -7 -22t-22 -6h-240v-8q0 -35 20 -48.5t73 -13.5h11zM306 294q12 0 12 13v16q0 30 -10 46q-12 18 -46 18h-9q-29 0 -42 -14q-15 -17 -15 -54v-25h110zM165 695q28 0 46.5 -18t18.5 -47v-8q0 -29 -18.5 -47t-46.5 -18h-6q-28 0 -46.5 18 t-18.5 47v8q0 29 18.5 47t46.5 18h6zM352 695q28 0 46.5 -18t18.5 -47v-8q0 -29 -18.5 -47t-46.5 -18h-6q-28 0 -46.5 18t-18.5 47v8q0 29 18.5 47t46.5 18h6z" />
<glyph unicode="&#xec;" horiz-adv-x="266" d="M0 0zM213 29q0 -14 -7 -21.5t-27 -7.5h-92q-20 0 -27 7.5t-7 21.5v432q0 14 7 21.5t27 7.5h92q20 0 27 -7.5t7 -21.5v-432zM232 622q9 -6 9 -16q0 -9 -11 -23l-30 -35q-8 -8 -12 -11t-12 -3q-10 0 -20 7l-158 108q-8 6 -12 11t-4 13q0 9 6 17l48 62q9 13 20 13q9 0 19 -9 z" />
<glyph unicode="&#xed;" horiz-adv-x="266" d="M44 0zM213 29q0 -14 -7 -21.5t-27 -7.5h-92q-20 0 -27 7.5t-7 21.5v432q0 14 7 21.5t27 7.5h92q20 0 27 -7.5t7 -21.5v-432zM210 756q10 9 19 9q11 0 20 -13l48 -62q6 -8 6 -17q0 -8 -4 -13t-12 -11l-158 -108q-11 -7 -20 -7q-8 0 -12 3t-12 11l-30 35q-11 14 -11 23 q0 10 9 16z" />
<glyph unicode="&#xee;" horiz-adv-x="266" d="M0 0zM213 29q0 -14 -7 -21.5t-27 -7.5h-92q-20 0 -27 7.5t-7 21.5v432q0 14 7 21.5t27 7.5h92q20 0 27 -7.5t7 -21.5v-432zM66 539q-10 -11 -22 -11q-11 0 -21 9l-36 30q-7 7 -7 13q0 9 8 17l88 102q8 8 14 10.5t14 2.5h61q8 0 14 -2.5t14 -10.5l88 -102q8 -8 8 -17 q0 -6 -7 -13l-36 -30q-11 -9 -21 -9q-12 0 -22 11l-66 71h-5z" />
<glyph unicode="&#xef;" horiz-adv-x="266" d="M0 0zM213 29q0 -14 -7 -21.5t-27 -7.5h-92q-20 0 -27 7.5t-7 21.5v432q0 14 7 21.5t27 7.5h92q20 0 27 -7.5t7 -21.5v-432zM45 695q28 0 46.5 -18t18.5 -47v-8q0 -29 -18.5 -47t-46.5 -18h-6q-28 0 -46.5 18t-18.5 47v8q0 29 18.5 47t46.5 18h6zM232 695q28 0 46.5 -18 t18.5 -47v-8q0 -29 -18.5 -47t-46.5 -18h-6q-28 0 -46.5 18t-18.5 47v8q0 29 18.5 47t46.5 18h6z" />
<glyph unicode="&#xf0;" horiz-adv-x="529" d="M324 644q39 -24 69.5 -55.5t50.5 -75t30.5 -100t10.5 -129.5v-46v-45q0 -59 -10 -92t-29 -54q-27 -29 -67.5 -42.5t-113.5 -13.5h-17q-64 0 -100 11.5t-61 33.5q-28 24 -40 66.5t-12 102.5v51q0 62 10.5 101.5t39.5 66.5q21 20 55.5 33t77.5 13h12q26 0 51 -5.5t42 -13.5 h2q-6 29 -21.5 53.5t-44.5 47.5l-28 -41q-7 -9 -13.5 -9t-17.5 8l-34 22q-16 12 -5 27l26 37l-52 25q-12 4 -12 16q0 7 7 17l31 51q6 9 14 9t17 -4q15 -6 29.5 -12t28.5 -13l31 44q6 8 12.5 9t17.5 -6l29 -19q12 -8 15 -14.5t-5 -17.5zM325 275q0 23 -3 34t-9 19 q-13 16 -47 16h-10q-32 0 -46 -17q-10 -11 -12 -31.5t-2 -62.5v-15q0 -38 2.5 -57.5t12.5 -30.5q12 -14 46 -14h11q29 0 43 13q14 14 14 48v98z" />
<glyph unicode="&#xf1;" horiz-adv-x="531" d="M51 0zM323 499q88 0 127 -41q20 -21 28.5 -51t8.5 -81v-297q0 -14 -7 -21.5t-27 -7.5h-92q-20 0 -27 7.5t-7 21.5v283q0 34 -11 46q-12 13 -44 13h-6q-32 0 -44 -13q-11 -12 -11 -46v-283q0 -14 -7 -21.5t-27 -7.5h-92q-20 0 -27 7.5t-7 21.5v433q0 15 7 21.5t27 6.5h47 q17 0 24.5 -4.5t12.5 -18.5l6 -19h3q48 51 137 51h8zM112 566q-8 5 -8 12q0 6 3 14q20 48 50 71.5t62 23.5q20 0 34.5 -5.5t28.5 -14.5l19 -12q23 -14 35 -14t22 7.5t21 24.5q5 8 13 8q5 0 13 -5l38 -26q9 -8 9 -14t-4 -13.5t-8 -12.5q-46 -69 -107 -69q-30 0 -56 16l-20 13 q-20 13 -34 13q-9 0 -18.5 -6.5t-23.5 -28.5q-6 -9 -14 -9q-5 0 -12 3z" />
<glyph unicode="&#xf2;" horiz-adv-x="516" d="M35 0zM196 206q0 -33 3.5 -49t14.5 -27q14 -14 42 -14h4q28 0 42 14q11 11 14.5 27t3.5 49v78q0 33 -3.5 49t-14.5 27q-14 14 -42 14h-4q-28 0 -42 -14q-11 -11 -14.5 -27t-3.5 -49v-78zM481 213q0 -38 -4 -67t-12 -50.5t-19.5 -37.5t-27.5 -28q-22 -17 -61 -28t-93 -11 h-12q-54 0 -93 11t-61 28q-16 12 -27.5 28t-19.5 37.5t-12 50.5t-4 67v64q0 38 4 67t12 50.5t19.5 37.5t27.5 28q22 17 61 28t93 11h12q54 0 93 -11t61 -28q16 -12 27.5 -28t19.5 -37.5t12 -50t4 -66.5v-65zM370 622q9 -6 9 -16q0 -9 -11 -23l-30 -35q-8 -8 -12 -11t-12 -3 q-10 0 -20 7l-158 108q-8 6 -12 11t-4 13q0 9 6 17l48 62q9 13 20 13q9 0 19 -9z" />
<glyph unicode="&#xf3;" horiz-adv-x="516" d="M35 0zM196 206q0 -33 3.5 -49t14.5 -27q14 -14 42 -14h4q28 0 42 14q11 11 14.5 27t3.5 49v78q0 33 -3.5 49t-14.5 27q-14 14 -42 14h-4q-28 0 -42 -14q-11 -11 -14.5 -27t-3.5 -49v-78zM481 213q0 -38 -4 -67t-12 -50.5t-19.5 -37.5t-27.5 -28q-22 -17 -61 -28t-93 -11 h-12q-54 0 -93 11t-61 28q-16 12 -27.5 28t-19.5 37.5t-12 50.5t-4 67v64q0 38 4 67t12 50.5t19.5 37.5t27.5 28q22 17 61 28t93 11h12q54 0 93 -11t61 -28q16 -12 27.5 -28t19.5 -37.5t12 -50t4 -66.5v-65zM333 756q10 9 19 9q11 0 20 -13l48 -62q6 -8 6 -17q0 -8 -4 -13 t-12 -11l-158 -108q-11 -7 -20 -7q-8 0 -12 3t-12 11l-30 35q-11 14 -11 23q0 10 9 16z" />
<glyph unicode="&#xf4;" horiz-adv-x="516" d="M35 0zM196 206q0 -33 3.5 -49t14.5 -27q14 -14 42 -14h4q28 0 42 14q11 11 14.5 27t3.5 49v78q0 33 -3.5 49t-14.5 27q-14 14 -42 14h-4q-28 0 -42 -14q-11 -11 -14.5 -27t-3.5 -49v-78zM481 213q0 -38 -4 -67t-12 -50.5t-19.5 -37.5t-27.5 -28q-22 -17 -61 -28t-93 -11 h-12q-54 0 -93 11t-61 28q-16 12 -27.5 28t-19.5 37.5t-12 50.5t-4 67v64q0 38 4 67t12 50.5t19.5 37.5t27.5 28q22 17 61 28t93 11h12q54 0 93 -11t61 -28q16 -12 27.5 -28t19.5 -37.5t12 -50t4 -66.5v-65zM193 539q-10 -11 -22 -11q-11 0 -21 9l-36 30q-7 7 -7 13 q0 9 8 17l88 102q8 8 14 10.5t14 2.5h61q8 0 14 -2.5t14 -10.5l88 -102q8 -8 8 -17q0 -6 -7 -13l-36 -30q-11 -9 -21 -9q-12 0 -22 11l-66 71h-5z" />
<glyph unicode="&#xf5;" horiz-adv-x="516" d="M35 0zM196 206q0 -33 3.5 -49t14.5 -27q14 -14 42 -14h4q28 0 42 14q11 11 14.5 27t3.5 49v78q0 33 -3.5 49t-14.5 27q-14 14 -42 14h-4q-28 0 -42 -14q-11 -11 -14.5 -27t-3.5 -49v-78zM481 213q0 -38 -4 -67t-12 -50.5t-19.5 -37.5t-27.5 -28q-22 -17 -61 -28t-93 -11 h-12q-54 0 -93 11t-61 28q-16 12 -27.5 28t-19.5 37.5t-12 50.5t-4 67v64q0 38 4 67t12 50.5t19.5 37.5t27.5 28q22 17 61 28t93 11h12q54 0 93 -11t61 -28q16 -12 27.5 -28t19.5 -37.5t12 -50t4 -66.5v-65zM99 566q-8 5 -8 12q0 6 3 14q20 48 50 71.5t62 23.5 q20 0 34.5 -5.5t28.5 -14.5l19 -12q23 -14 35 -14t22 7.5t21 24.5q5 8 13 8q5 0 13 -5l38 -26q9 -8 9 -14t-4 -13.5t-8 -12.5q-46 -69 -107 -69q-30 0 -56 16l-20 13q-20 13 -34 13q-9 0 -18.5 -6.5t-23.5 -28.5q-6 -9 -14 -9q-5 0 -12 3z" />
<glyph unicode="&#xf6;" horiz-adv-x="516" d="M35 0zM196 206q0 -33 3.5 -49t14.5 -27q14 -14 42 -14h4q28 0 42 14q11 11 14.5 27t3.5 49v78q0 33 -3.5 49t-14.5 27q-14 14 -42 14h-4q-28 0 -42 -14q-11 -11 -14.5 -27t-3.5 -49v-78zM481 213q0 -38 -4 -67t-12 -50.5t-19.5 -37.5t-27.5 -28q-22 -17 -61 -28t-93 -11 h-12q-54 0 -93 11t-61 28q-16 12 -27.5 28t-19.5 37.5t-12 50.5t-4 67v64q0 38 4 67t12 50.5t19.5 37.5t27.5 28q22 17 61 28t93 11h12q54 0 93 -11t61 -28q16 -12 27.5 -28t19.5 -37.5t12 -50t4 -66.5v-65zM169 695q28 0 46.5 -18t18.5 -47v-8q0 -29 -18.5 -47t-46.5 -18 h-6q-28 0 -46.5 18t-18.5 47v8q0 29 18.5 47t46.5 18h6zM356 695q28 0 46.5 -18t18.5 -47v-8q0 -29 -18.5 -47t-46.5 -18h-6q-28 0 -46.5 18t-18.5 47v8q0 29 18.5 47t46.5 18h6z" />
<glyph unicode="&#xf7;" d="M371 447q0 -41 -20.5 -60.5t-55.5 -19.5h-12q-46 0 -61.5 19.5t-15.5 60.5v7q0 45 22.5 61.5t54.5 16.5h12q35 0 55.5 -16.5t20.5 -61.5v-7zM371 63q0 -41 -20.5 -60.5t-55.5 -19.5h-12q-46 0 -61.5 19.5t-15.5 60.5v7q0 45 22.5 61.5t54.5 16.5h12q35 0 55.5 -16.5 t20.5 -61.5v-7zM496 327q20 0 27.5 -9.5t7.5 -30.5v-62q0 -20 -7.5 -28t-27.5 -8h-412q-20 0 -27.5 8t-7.5 28v62q0 21 7.5 30.5t27.5 9.5h412z" />
<glyph unicode="&#xf8;" horiz-adv-x="516" d="M196 206v-1l103 157q-14 12 -39 12h-4q-28 0 -42 -14q-11 -11 -14.5 -27t-3.5 -49v-78zM302 130q11 11 14.5 27t3.5 49v67l-98 -150q11 -7 34 -7h4q28 0 42 14zM87 39q-26 25 -39 64.5t-13 109.5v64q0 38 4 67t12 50.5t19.5 37.5t27.5 28q22 17 61 28t93 11h12 q34 0 62 -4.5t51 -12.5l34 51q7 11 10.5 14t7.5 3q3 0 6.5 -1t10.5 -6l16 -11q8 -5 11 -9t3 -7q0 -5 -3 -10t-8 -12l-32 -48q24 -24 36 -62.5t12 -105.5v-65q0 -38 -4 -67t-12 -50.5t-19.5 -37.5t-27.5 -28q-22 -17 -61 -28t-93 -11h-12q-32 0 -59 4t-48 11l-30 -45 q-7 -11 -10.5 -14t-7.5 -3q-3 0 -6.5 1t-10.5 6l-16 11q-8 5 -11 9t-3 7q0 5 3 10t8 12z" />
<glyph unicode="&#xf9;" horiz-adv-x="518" d="M44 0zM314 461q0 14 7 21.5t27 7.5h92q20 0 27 -7.5t7 -21.5v-296q0 -48 -11 -79.5t-34 -52.5q-27 -24 -68.5 -33t-101.5 -9t-101.5 9t-68.5 33q-23 21 -34 52.5t-11 79.5v296q0 14 7 21.5t27 7.5h92q20 0 27 -7.5t7 -21.5v-282q0 -34 11 -46q12 -13 44 -13t44 13 q11 12 11 46v282zM369 622q9 -6 9 -16q0 -9 -11 -23l-30 -35q-8 -8 -12 -11t-12 -3q-10 0 -20 7l-158 108q-8 6 -12 11t-4 13q0 9 6 17l48 62q9 13 20 13q9 0 19 -9z" />
<glyph unicode="&#xfa;" horiz-adv-x="518" d="M44 0zM314 461q0 14 7 21.5t27 7.5h92q20 0 27 -7.5t7 -21.5v-296q0 -48 -11 -79.5t-34 -52.5q-27 -24 -68.5 -33t-101.5 -9t-101.5 9t-68.5 33q-23 21 -34 52.5t-11 79.5v296q0 14 7 21.5t27 7.5h92q20 0 27 -7.5t7 -21.5v-282q0 -34 11 -46q12 -13 44 -13t44 13 q11 12 11 46v282zM333 756q10 9 19 9q11 0 20 -13l48 -62q6 -8 6 -17q0 -8 -4 -13t-12 -11l-158 -108q-11 -7 -20 -7q-8 0 -12 3t-12 11l-30 35q-11 14 -11 23q0 10 9 16z" />
<glyph unicode="&#xfb;" horiz-adv-x="518" d="M44 0zM314 461q0 14 7 21.5t27 7.5h92q20 0 27 -7.5t7 -21.5v-296q0 -48 -11 -79.5t-34 -52.5q-27 -24 -68.5 -33t-101.5 -9t-101.5 9t-68.5 33q-23 21 -34 52.5t-11 79.5v296q0 14 7 21.5t27 7.5h92q20 0 27 -7.5t7 -21.5v-282q0 -34 11 -46q12 -13 44 -13t44 13 q11 12 11 46v282zM191 539q-10 -11 -22 -11q-11 0 -21 9l-36 30q-7 7 -7 13q0 9 8 17l88 102q8 8 14 10.5t14 2.5h61q8 0 14 -2.5t14 -10.5l88 -102q8 -8 8 -17q0 -6 -7 -13l-36 -30q-11 -9 -21 -9q-12 0 -22 11l-66 71h-5z" />
<glyph unicode="&#xfc;" horiz-adv-x="518" d="M44 0zM314 461q0 14 7 21.5t27 7.5h92q20 0 27 -7.5t7 -21.5v-296q0 -48 -11 -79.5t-34 -52.5q-27 -24 -68.5 -33t-101.5 -9t-101.5 9t-68.5 33q-23 21 -34 52.5t-11 79.5v296q0 14 7 21.5t27 7.5h92q20 0 27 -7.5t7 -21.5v-282q0 -34 11 -46q12 -13 44 -13t44 13 q11 12 11 46v282zM170 695q28 0 46.5 -18t18.5 -47v-8q0 -29 -18.5 -47t-46.5 -18h-6q-28 0 -46.5 18t-18.5 47v8q0 29 18.5 47t46.5 18h6zM357 695q28 0 46.5 -18t18.5 -47v-8q0 -29 -18.5 -47t-46.5 -18h-6q-28 0 -46.5 18t-18.5 47v8q0 29 18.5 47t46.5 18h6z" />
<glyph unicode="&#xfd;" horiz-adv-x="482" d="M1 0zM475 460q-10 -67 -29.5 -145.5t-47 -161.5t-63.5 -168t-79 -164q-6 -12 -12.5 -16.5t-15.5 -4.5q-11 0 -29 8l-51 22q-26 12 -26 25q0 7 5 17l16.5 33t17 33.5t15 30.5t9.5 23q-20 8 -35.5 22t-29.5 46t-30.5 83t-32.5 108t-29 113t-21 97q-6 29 30 29h91 q17 0 24.5 -4.5t10.5 -19.5q7 -41 16.5 -85t19.5 -87.5t20.5 -85t21.5 -77.5h5q12 34 24 78t22 90t18.5 89t13.5 75q2 16 9.5 21.5t22.5 5.5h92q17 0 23 -6.5t4 -23.5zM304 756q10 9 19 9q11 0 20 -13l48 -62q6 -8 6 -17q0 -8 -4 -13t-12 -11l-158 -108q-11 -7 -20 -7 q-8 0 -12 3t-12 11l-30 35q-11 14 -11 23q0 10 9 16z" />
<glyph unicode="&#xfe;" horiz-adv-x="536" d="M211 473q20 13 46.5 19.5t65.5 6.5h9q47 0 81 -14.5t52 -37.5t27 -59t9 -105v-75q0 -60 -9 -100.5t-37 -67.5t-61.5 -38t-78.5 -11h-11q-26 0 -51 5.5t-42 15.5v-154q0 -22 -8 -28.5t-34 -6.5h-76q-25 0 -33.5 6.5t-8.5 28.5v790q0 14 7 21.5t27 7.5h92q20 0 27 -7.5 t7 -21.5v-175zM211 177q0 -34 14 -48q14 -13 45 -13h9q20 0 31 5t18 15q8 13 10 32.5t2 54.5v43q0 35 -1.5 56t-10.5 33q-7 9 -18.5 13.5t-31.5 4.5h-7q-18 0 -28.5 -3.5t-18.5 -11.5t-10.5 -19t-2.5 -34v-128z" />
<glyph unicode="&#xff;" horiz-adv-x="482" d="M1 0zM475 460q-10 -67 -29.5 -145.5t-47 -161.5t-63.5 -168t-79 -164q-6 -12 -12.5 -16.5t-15.5 -4.5q-11 0 -29 8l-51 22q-26 12 -26 25q0 7 5 17l16.5 33t17 33.5t15 30.5t9.5 23q-20 8 -35.5 22t-29.5 46t-30.5 83t-32.5 108t-29 113t-21 97q-6 29 30 29h91 q17 0 24.5 -4.5t10.5 -19.5q7 -41 16.5 -85t19.5 -87.5t20.5 -85t21.5 -77.5h5q12 34 24 78t22 90t18.5 89t13.5 75q2 16 9.5 21.5t22.5 5.5h92q17 0 23 -6.5t4 -23.5zM153 695q28 0 46.5 -18t18.5 -47v-8q0 -29 -18.5 -47t-46.5 -18h-6q-28 0 -46.5 18t-18.5 47v8 q0 29 18.5 47t46.5 18h6zM340 695q28 0 46.5 -18t18.5 -47v-8q0 -29 -18.5 -47t-46.5 -18h-6q-28 0 -46.5 18t-18.5 47v8q0 29 18.5 47t46.5 18h6z" />
<glyph unicode="&#x100;" horiz-adv-x="613" d="M15 0zM372 246q-6 24 -13.5 52t-15.5 58l-16 60t-15 56h-11q-8 -26 -16 -56t-15.5 -60t-15 -58t-13.5 -52h131zM477 0q-15 0 -24.5 2t-15 5.5t-8 10t-5.5 15.5l-23 83h-189l-23 -83q-3 -9 -5.5 -15.5t-8 -10.5t-15 -5.5t-24.5 -1.5h-87q-17 0 -25.5 4.5t-8.5 17.5 q0 5 3 16t11 39q42 141 80.5 270.5t80.5 254.5q8 25 23.5 35t47.5 10h91q32 0 47.5 -10t23.5 -35q42 -125 81.5 -254.5t81.5 -270.5q8 -28 11 -39t3 -16q0 -13 -8.5 -17.5t-25.5 -4.5h-89zM198 727q-15 0 -21 5.5t-6 18.5v50q0 13 6 18.5t21 5.5h216q15 0 21 -5.5t6 -18.5 v-50q0 -13 -6 -18.5t-21 -5.5h-216z" />
<glyph unicode="&#x101;" horiz-adv-x="508" d="M30 0zM338 41q-15 -23 -49 -36.5t-82 -13.5h-15q-75 0 -118.5 39t-43.5 115v11q0 84 48 116t149 32h7q20 0 39.5 -1t30.5 -3v21q0 15 -3 25.5t-14 18.5q-9 6 -22 8.5t-38 2.5q-26 0 -56.5 -4.5t-59.5 -12.5q-19 -5 -25.5 0.5t-8.5 18.5l-8 53q-1 5 -1.5 11t-0.5 9 q0 10 4.5 15.5t19.5 10.5q32 9 76 15.5t95 6.5q60 0 100 -12t64 -37q38 -39 38 -125v-297q0 -15 -7 -21.5t-27 -6.5h-47q-17 0 -24.5 4.5t-12.5 18.5l-6 18h-2zM304 197q-8 2 -22.5 2.5t-25.5 0.5h-11q-35 0 -50 -8.5t-15 -36.5v-4q0 -28 15 -37t41 -9h7q17 0 28.5 4.5 t18.5 10.5q8 8 11 18.5t3 30.5v28zM154 571q-26 0 -26 24v49q0 25 26 25h218q26 0 26 -25v-49q0 -24 -26 -24h-218z" />
<glyph unicode="&#x102;" horiz-adv-x="613" d="M15 0zM372 246q-6 24 -13.5 52t-15.5 58l-16 60t-15 56h-11q-8 -26 -16 -56t-15.5 -60t-15 -58t-13.5 -52h131zM477 0q-15 0 -24.5 2t-15 5.5t-8 10t-5.5 15.5l-23 83h-189l-23 -83q-3 -9 -5.5 -15.5t-8 -10.5t-15 -5.5t-24.5 -1.5h-87q-17 0 -25.5 4.5t-8.5 17.5 q0 5 3 16t11 39q42 141 80.5 270.5t80.5 254.5q8 25 23.5 35t47.5 10h91q32 0 47.5 -10t23.5 -35q42 -125 81.5 -254.5t81.5 -270.5q8 -28 11 -39t3 -16q0 -13 -8.5 -17.5t-25.5 -4.5h-89zM308 801q41 0 68 59q5 11 15 11q5 0 13 -3l49 -19q13 -4 13 -16q0 -8 -3.5 -15.5 t-5.5 -12.5q-22 -46 -58 -73.5t-90 -27.5h-6q-54 0 -90 27.5t-58 73.5q-2 5 -5.5 12.5t-3.5 15.5q0 12 13 16l49 19q7 3 13 3q10 0 15 -11q27 -59 68 -59h4z" />
<glyph unicode="&#x103;" horiz-adv-x="508" d="M30 0zM338 41q-15 -23 -49 -36.5t-82 -13.5h-15q-75 0 -118.5 39t-43.5 115v11q0 84 48 116t149 32h7q20 0 39.5 -1t30.5 -3v21q0 15 -3 25.5t-14 18.5q-9 6 -22 8.5t-38 2.5q-26 0 -56.5 -4.5t-59.5 -12.5q-19 -5 -25.5 0.5t-8.5 18.5l-8 53q-1 5 -1.5 11t-0.5 9 q0 10 4.5 15.5t19.5 10.5q32 9 76 15.5t95 6.5q60 0 100 -12t64 -37q38 -39 38 -125v-297q0 -15 -7 -21.5t-27 -6.5h-47q-17 0 -24.5 4.5t-12.5 18.5l-6 18h-2zM304 197q-8 2 -22.5 2.5t-25.5 0.5h-11q-35 0 -50 -8.5t-15 -36.5v-4q0 -28 15 -37t41 -9h7q17 0 28.5 4.5 t18.5 10.5q8 8 11 18.5t3 30.5v28zM263 638q41 0 68 59q5 11 15 11q5 0 13 -3l49 -19q13 -4 13 -16q0 -8 -3.5 -15.5t-5.5 -12.5q-22 -46 -58 -73.5t-90 -27.5h-6q-54 0 -90 27.5t-58 73.5q-2 5 -5.5 12.5t-3.5 15.5q0 12 13 16l49 19q7 3 13 3q10 0 15 -11q27 -59 68 -59h4 z" />
<glyph unicode="&#x104;" horiz-adv-x="613" d="M401 116h-189l-23 -83q-3 -9 -5.5 -15.5t-8 -10.5t-15 -5.5t-24.5 -1.5h-88q-17 0 -26 4.5t-9 17.5q0 7 3.5 19.5t10.5 35.5q42 141 81.5 270.5t81.5 254.5q8 25 24 35t47 10h91q31 0 47 -10t24 -35q42 -125 81.5 -254.5t81.5 -270.5q7 -23 10.5 -35.5t3.5 -19.5 q0 -11 -9 -16.5t-21 -5.5h-15q-26 -1 -45.5 -10t-33.5 -22.5t-21 -29.5t-7 -32v-3q0 -15 8.5 -23t21.5 -8h3q10 0 21 2.5t19 4.5t12 2q3 0 6.5 -2.5t5.5 -10.5l5 -21q5 -20 5 -23q0 -9 -14 -15t-35 -10t-46 -4h-6q-52 0 -79 23t-27 63v6q0 16 5.5 33.5t16 34.5t26 32 t35.5 26q-3 6 -7 20zM372 246l-60 226h-11q-8 -26 -15.5 -56t-15.5 -60t-15.5 -58t-13.5 -52h131z" />
<glyph unicode="&#x105;" horiz-adv-x="512" d="M338 41q-15 -23 -49 -36.5t-82 -13.5h-15q-75 0 -118.5 39t-43.5 115v11q0 84 48 116t149 32h7q20 0 39.5 -1t30.5 -3v21q0 15 -3 25.5t-14 18.5q-9 6 -22 8.5t-38 2.5q-26 0 -56.5 -4.5t-59.5 -12.5q-19 -5 -25.5 0.5t-8.5 18.5l-8 53q-1 6 -1.5 11.5t-0.5 8.5 q0 10 4.5 15.5t19.5 10.5q32 9 76 15.5t95 6.5q60 0 100 -12t64 -37q38 -39 38 -125v-297q0 -12 -2.5 -18t-13.5 -10q-36 -14 -61.5 -41t-25.5 -57v-3q0 -27 27 -27h3q10 0 22 2.5t21 5.5q8 2 12 2q3 0 6.5 -2.5t5.5 -10.5l5 -21q5 -20 5 -23q0 -9 -14 -15q-17 -7 -38 -11 t-43 -4h-6q-52 0 -79 22.5t-27 61.5v5q0 39 26 71t63 52l-10 34h-2zM304 197q-8 2 -22.5 2.5t-25.5 0.5h-11q-35 0 -50 -8.5t-15 -36.5v-4q0 -28 15 -37t41 -9h7q17 0 28.5 4.5t18.5 10.5q8 8 11 18.5t3 30.5v28z" />
<glyph unicode="&#x106;" horiz-adv-x="561" d="M46 0zM311 -9q-145 0 -208 67q-31 32 -44 81.5t-13 122.5v123q0 73 13.5 122t44.5 81q32 35 83 51.5t125 16.5h7q49 0 102.5 -11.5t93.5 -32.5q11 -6 14 -14t-2 -22l-33 -84q-6 -15 -17 -15q-9 0 -19 5q-32 16 -64.5 25t-67.5 9h-4q-64 0 -86 -36q-11 -19 -15 -47.5 t-4 -71.5v-71q0 -46 5.5 -77t22.5 -51q14 -15 36.5 -23t57.5 -8h4q27 0 62.5 8.5t61.5 19.5q4 2 7.5 3t8.5 1q6 0 10.5 -4.5t7.5 -16.5l17 -72q3 -12 3 -19q0 -9 -6 -15t-24 -13q-35 -14 -80.5 -23t-89.5 -9h-10zM380 894q11 7 19 7q7 0 11.5 -5t7.5 -10l38 -62q7 -11 7 -21 q0 -14 -19 -24l-169 -89q-10 -5 -21 -5q-6 0 -10.5 4t-11.5 13l-26 38q-8 12 -8 21q0 11 11 18z" />
<glyph unicode="&#x107;" horiz-adv-x="454" d="M35 0zM289 120q20 0 44 4t43 9q4 1 9 2t10 1q15 0 18 -17l9 -51q2 -8 3 -15t1 -12q0 -10 -5 -16t-21 -11q-30 -11 -67 -17t-77 -6h-12q-108 0 -158 50q-29 29 -40 70.5t-11 100.5v58q0 37 3 64t9.5 48t16 36t22.5 28q26 26 65.5 39.5t99.5 13.5h10q40 0 82.5 -9t71.5 -24 q19 -10 19 -25q0 -6 -2 -13t-6 -17l-19 -48q-4 -9 -8.5 -13.5t-12.5 -4.5q-6 0 -18 5q-22 9 -44 14.5t-45 5.5h-4q-38 0 -57 -19q-15 -15 -18.5 -36.5t-3.5 -55.5v-34q0 -34 4.5 -52.5t15.5 -31.5q19 -21 65 -21h8zM315 756q10 9 19 9q11 0 20 -13l48 -62q6 -8 6 -17 q0 -8 -4 -13t-12 -11l-158 -108q-11 -7 -20 -7q-8 0 -12 3t-12 11l-30 35q-11 14 -11 23q0 10 9 16z" />
<glyph unicode="&#x108;" horiz-adv-x="561" d="M46 0zM311 -9q-145 0 -208 67q-31 32 -44 81.5t-13 122.5v123q0 73 13.5 122t44.5 81q32 35 83 51.5t125 16.5h7q49 0 102.5 -11.5t93.5 -32.5q11 -6 14 -14t-2 -22l-33 -84q-6 -15 -17 -15q-9 0 -19 5q-32 16 -64.5 25t-67.5 9h-4q-64 0 -86 -36q-11 -19 -15 -47.5 t-4 -71.5v-71q0 -46 5.5 -77t22.5 -51q14 -15 36.5 -23t57.5 -8h4q27 0 62.5 8.5t61.5 19.5q4 2 7.5 3t8.5 1q6 0 10.5 -4.5t7.5 -16.5l17 -72q3 -12 3 -19q0 -9 -6 -15t-24 -13q-35 -14 -80.5 -23t-89.5 -9h-10zM240 704q-10 -11 -22 -11q-11 0 -21 9l-36 30q-7 7 -7 13 q0 9 8 17l88 102q8 8 14 10.5t14 2.5h61q8 0 14 -2.5t14 -10.5l88 -102q8 -8 8 -17q0 -6 -7 -13l-36 -30q-11 -9 -21 -9q-12 0 -22 11l-66 71h-5z" />
<glyph unicode="&#x109;" horiz-adv-x="454" d="M35 0zM289 120q20 0 44 4t43 9q4 1 9 2t10 1q15 0 18 -17l9 -51q2 -8 3 -15t1 -12q0 -10 -5 -16t-21 -11q-30 -11 -67 -17t-77 -6h-12q-108 0 -158 50q-29 29 -40 70.5t-11 100.5v58q0 37 3 64t9.5 48t16 36t22.5 28q26 26 65.5 39.5t99.5 13.5h10q40 0 82.5 -9t71.5 -24 q19 -10 19 -25q0 -6 -2 -13t-6 -17l-19 -48q-4 -9 -8.5 -13.5t-12.5 -4.5q-6 0 -18 5q-22 9 -44 14.5t-45 5.5h-4q-38 0 -57 -19q-15 -15 -18.5 -36.5t-3.5 -55.5v-34q0 -34 4.5 -52.5t15.5 -31.5q19 -21 65 -21h8zM187 539q-10 -11 -22 -11q-11 0 -21 9l-36 30q-7 7 -7 13 q0 9 8 17l88 102q8 8 14 10.5t14 2.5h61q8 0 14 -2.5t14 -10.5l88 -102q8 -8 8 -17q0 -6 -7 -13l-36 -30q-11 -9 -21 -9q-12 0 -22 11l-66 71h-5z" />
<glyph unicode="&#x10a;" horiz-adv-x="561" d="M46 0zM311 -9q-145 0 -208 67q-31 32 -44 81.5t-13 122.5v123q0 73 13.5 122t44.5 81q32 35 83 51.5t125 16.5h7q49 0 102.5 -11.5t93.5 -32.5q11 -6 14 -14t-2 -22l-33 -84q-6 -15 -17 -15q-9 0 -19 5q-32 16 -64.5 25t-67.5 9h-4q-64 0 -86 -36q-11 -19 -15 -47.5 t-4 -71.5v-71q0 -46 5.5 -77t22.5 -51q14 -15 36.5 -23t57.5 -8h4q27 0 62.5 8.5t61.5 19.5q4 2 7.5 3t8.5 1q6 0 10.5 -4.5t7.5 -16.5l17 -72q3 -12 3 -19q0 -9 -6 -15t-24 -13q-35 -14 -80.5 -23t-89.5 -9h-10zM235 791q0 32 21.5 52t51.5 20t51.5 -20t21.5 -52t-21.5 -52 t-51.5 -20t-51.5 20t-21.5 52z" />
<glyph unicode="&#x10b;" horiz-adv-x="454" d="M35 0zM289 120q20 0 44 4t43 9q4 1 9 2t10 1q15 0 18 -17l9 -51q2 -8 3 -15t1 -12q0 -10 -5 -16t-21 -11q-30 -11 -67 -17t-77 -6h-12q-108 0 -158 50q-29 29 -40 70.5t-11 100.5v58q0 37 3 64t9.5 48t16 36t22.5 28q26 26 65.5 39.5t99.5 13.5h10q40 0 82.5 -9t71.5 -24 q19 -10 19 -25q0 -6 -2 -13t-6 -17l-19 -48q-4 -9 -8.5 -13.5t-12.5 -4.5q-6 0 -18 5q-22 9 -44 14.5t-45 5.5h-4q-38 0 -57 -19q-15 -15 -18.5 -36.5t-3.5 -55.5v-34q0 -34 4.5 -52.5t15.5 -31.5q19 -21 65 -21h8zM175 611q0 32 21.5 52t51.5 20t51.5 -20t21.5 -52 t-21.5 -52t-51.5 -20t-51.5 20t-21.5 52z" />
<glyph unicode="&#x10c;" horiz-adv-x="561" d="M46 0zM311 -9q-145 0 -208 67q-31 32 -44 81.5t-13 122.5v123q0 73 13.5 122t44.5 81q32 35 83 51.5t125 16.5h7q49 0 102.5 -11.5t93.5 -32.5q11 -6 14 -14t-2 -22l-33 -84q-6 -15 -17 -15q-9 0 -19 5q-32 16 -64.5 25t-67.5 9h-4q-64 0 -86 -36q-11 -19 -15 -47.5 t-4 -71.5v-71q0 -46 5.5 -77t22.5 -51q14 -15 36.5 -23t57.5 -8h4q27 0 62.5 8.5t61.5 19.5q4 2 7.5 3t8.5 1q6 0 10.5 -4.5t7.5 -16.5l17 -72q3 -12 3 -19q0 -9 -6 -15t-24 -13q-35 -14 -80.5 -23t-89.5 -9h-10zM308 802h5l66 71q10 11 22 11q10 0 21 -9l36 -30q7 -7 7 -13 q0 -9 -8 -17l-88 -102q-8 -8 -14.5 -10.5t-13.5 -2.5h-61q-7 0 -13.5 2.5t-14.5 10.5l-88 102q-8 8 -8 17q0 6 7 13l36 30q10 9 21 9q12 0 22 -11z" />
<glyph unicode="&#x10d;" horiz-adv-x="454" d="M35 0zM289 120q20 0 44 4t43 9q4 1 9 2t10 1q15 0 18 -17l9 -51q2 -8 3 -15t1 -12q0 -10 -5 -16t-21 -11q-30 -11 -67 -17t-77 -6h-12q-108 0 -158 50q-29 29 -40 70.5t-11 100.5v58q0 37 3 64t9.5 48t16 36t22.5 28q26 26 65.5 39.5t99.5 13.5h10q40 0 82.5 -9t71.5 -24 q19 -10 19 -25q0 -6 -2 -13t-6 -17l-19 -48q-4 -9 -8.5 -13.5t-12.5 -4.5q-6 0 -18 5q-22 9 -44 14.5t-45 5.5h-4q-38 0 -57 -19q-15 -15 -18.5 -36.5t-3.5 -55.5v-34q0 -34 4.5 -52.5t15.5 -31.5q19 -21 65 -21h8zM246 637h5l66 71q10 11 22 11q10 0 21 -9l36 -30 q7 -7 7 -13q0 -9 -8 -17l-88 -102q-7 -9 -14 -11t-14 -2h-61q-7 0 -14 2t-14 11l-88 102q-8 8 -8 17q0 6 7 13l36 30q10 9 21 9q12 0 22 -11z" />
<glyph unicode="&#x10e;" horiz-adv-x="637" d="M64 0zM249 510q-17 -1 -17 -17v-332q0 -13 4 -17t12 -5q10 -1 23.5 -1h21.5h5q59 0 88 29q38 38 38 139v41q0 102 -34 137q-16 17 -39 22.5t-54 5.5h-5q-9 0 -22 -0.5t-21 -1.5zM240 0q-38 0 -78 1t-60 3q-38 4 -38 39v546q0 30 9.5 40t35.5 13q30 3 69.5 5t87.5 2h14 q88 0 147.5 -16.5t97.5 -53.5q35 -35 52.5 -89.5t17.5 -133.5v-58q0 -84 -17 -137t-54 -88q-39 -38 -102.5 -55.5t-160.5 -17.5h-21zM314 802h5l66 71q10 11 22 11q10 0 21 -9l36 -30q7 -7 7 -13q0 -9 -8 -17l-88 -102q-8 -8 -14.5 -10.5t-13.5 -2.5h-61q-7 0 -13.5 2.5 t-14.5 10.5l-88 102q-8 8 -8 17q0 6 7 13l36 30q10 9 21 9q12 0 22 -11z" />
<glyph unicode="&#x10f;" horiz-adv-x="674" d="M35 0zM325 304q0 23 -3 34t-9 19q-13 16 -47 16h-10q-32 0 -46 -17q-10 -11 -12 -31.5t-2 -62.5v-44q0 -38 2.5 -57.5t12.5 -30.5q12 -14 46 -14h11q29 0 43 13q14 14 14 48v127zM325 481v167q0 14 7 21.5t27 7.5h93q20 0 26.5 -7.5t6.5 -21.5v-455q0 -59 -10 -92 t-29 -54q-27 -29 -67.5 -42.5t-113.5 -13.5h-17q-64 0 -100 11.5t-61 33.5q-28 24 -40 66.5t-12 102.5v80q0 62 10.5 101.5t39.5 66.5q21 20 55.5 33t77.5 13h12q29 0 52.5 -5t40.5 -13h2zM608 720q30 0 43 -15t13 -47v-18q0 -43 -20 -82.5t-56 -72.5q-10 -10 -18 -10 q-7 0 -19 11l-25 23q-6 6 -6 12q0 5 3.5 9t9.5 11t11 13t9 11q5 6 8.5 11t3.5 10q0 3 -4 6q-15 8 -23 19t-8 33v21q0 26 14.5 40.5t42.5 14.5h21z" />
<glyph unicode="&#x110;" horiz-adv-x="656" d="M259 0q-38 0 -78 1t-60 3q-38 4 -38 39v225h-54q-14 0 -19.5 6t-5.5 22v54q0 14 5.5 21t19.5 7h54v210q0 31 9 41t35 13q30 3 69.5 5t87.5 2h16q80 0 139 -15t98 -48.5t58 -88t19 -132.5v-76q0 -152 -82 -220.5t-258 -68.5h-15zM251 268v-107q0 -13 4 -17t12 -5 q10 -1 23.5 -1h21.5h8q60 0 91.5 39.5t31.5 124.5v49q0 46 -8 77t-24 50t-39.5 26.5t-53.5 7.5h-7q-9 0 -22 -0.5t-21 -1.5q-17 -1 -17 -17v-115h68q14 0 19.5 -7t5.5 -21v-54q0 -16 -5.5 -22t-19.5 -6h-68z" />
<glyph unicode="&#x111;" horiz-adv-x="529" d="M325 304q0 23 -3 34t-9 19q-13 16 -47 16h-10q-32 0 -46 -17q-10 -11 -12 -31.5t-2 -62.5v-44q0 -38 2.5 -57.5t12.5 -30.5q12 -14 46 -14h11q29 0 43 13q14 14 14 48v127zM255 533q-14 0 -19.5 6t-5.5 22v31q0 14 5.5 21t19.5 7h70v28q0 14 7 21.5t27 7.5h92 q20 0 27 -7.5t7 -21.5v-28h45q14 0 19.5 -7t5.5 -21v-31q0 -16 -5.5 -22t-19.5 -6h-45v-340q0 -59 -10 -92t-29 -54q-27 -29 -67.5 -42.5t-113.5 -13.5h-17q-64 0 -100 11.5t-61 33.5q-28 24 -40 66.5t-12 102.5v80q0 62 10.5 101.5t39.5 66.5q21 20 55.5 33t77.5 13h12 q29 0 52.5 -5t40.5 -13h2v52h-70z" />
<glyph unicode="&#x112;" horiz-adv-x="527" d="M52 0zM210 266q0 -31 1.5 -60t4.5 -52q2 -11 7 -14.5t15 -3.5h213q23 0 28.5 -5.5t5.5 -25.5v-74q0 -18 -5.5 -24.5t-28.5 -6.5h-241q-37 0 -64 4.5t-45.5 16.5t-28.5 32t-13 52q-5 46 -6 94.5t-1 98.5v61q0 32 1 75.5t5 85.5q3 39 13 63.5t28 38.5t46 19.5t68 5.5h239 q24 0 28.5 -5.5t4.5 -25.5v-75q0 -18 -4.5 -24t-28.5 -6h-212q-14 0 -19 -4.5t-6 -15.5q-1 -15 -1.5 -44t-1.5 -55h211q19 0 25.5 -5.5t6.5 -23.5v-70q0 -16 -6.5 -21.5t-25.5 -5.5h-213zM178 730q-15 0 -21 5.5t-6 18.5v50q0 13 6 18.5t21 5.5h216q15 0 21 -5.5t6 -18.5 v-50q0 -13 -6 -18.5t-21 -5.5h-216z" />
<glyph unicode="&#x113;" horiz-adv-x="499" d="M35 0zM300 120q24 0 55.5 4t50.5 9q4 1 9 2t10 1q15 0 18 -17l8 -50q2 -8 3 -15t1 -12q0 -10 -5 -16t-21 -11q-30 -11 -72 -17.5t-79 -6.5h-19q-60 0 -104 12.5t-70 38.5q-30 30 -40 70.5t-10 101.5v56q0 75 17 118t43 66q51 45 157 45h14q54 0 92.5 -13.5t58.5 -36.5 q26 -29 37 -71.5t11 -107.5v-52q0 -16 -7 -22t-22 -6h-240v-8q0 -35 20 -48.5t73 -13.5h11zM306 294q12 0 12 13v16q0 30 -10 46q-12 18 -46 18h-9q-29 0 -42 -14q-15 -17 -15 -54v-25h110zM147 571q-26 0 -26 24v49q0 25 26 25h218q26 0 26 -25v-49q0 -24 -26 -24h-218z " />
<glyph unicode="&#x114;" horiz-adv-x="527" d="M52 0zM210 266q0 -31 1.5 -60t4.5 -52q2 -11 7 -14.5t15 -3.5h213q23 0 28.5 -5.5t5.5 -25.5v-74q0 -18 -5.5 -24.5t-28.5 -6.5h-241q-37 0 -64 4.5t-45.5 16.5t-28.5 32t-13 52q-5 46 -6 94.5t-1 98.5v61q0 32 1 75.5t5 85.5q3 39 13 63.5t28 38.5t46 19.5t68 5.5h239 q24 0 28.5 -5.5t4.5 -25.5v-75q0 -18 -4.5 -24t-28.5 -6h-212q-14 0 -19 -4.5t-6 -15.5q-1 -15 -1.5 -44t-1.5 -55h211q19 0 25.5 -5.5t6.5 -23.5v-70q0 -16 -6.5 -21.5t-25.5 -5.5h-213zM287 801q41 0 68 59q5 11 15 11q5 0 13 -3l49 -19q13 -4 13 -16q0 -8 -3.5 -15.5 t-5.5 -12.5q-22 -46 -58 -73.5t-90 -27.5h-6q-54 0 -90 27.5t-58 73.5q-2 5 -5.5 12.5t-3.5 15.5q0 12 13 16l49 19q7 3 13 3q10 0 15 -11q27 -59 68 -59h4z" />
<glyph unicode="&#x115;" horiz-adv-x="499" d="M35 0zM300 120q24 0 55.5 4t50.5 9q4 1 9 2t10 1q15 0 18 -17l8 -50q2 -8 3 -15t1 -12q0 -10 -5 -16t-21 -11q-30 -11 -72 -17.5t-79 -6.5h-19q-60 0 -104 12.5t-70 38.5q-30 30 -40 70.5t-10 101.5v56q0 75 17 118t43 66q51 45 157 45h14q54 0 92.5 -13.5t58.5 -36.5 q26 -29 37 -71.5t11 -107.5v-52q0 -16 -7 -22t-22 -6h-240v-8q0 -35 20 -48.5t73 -13.5h11zM306 294q12 0 12 13v16q0 30 -10 46q-12 18 -46 18h-9q-29 0 -42 -14q-15 -17 -15 -54v-25h110zM253 638q41 0 68 59q5 11 15 11q5 0 13 -3l49 -19q13 -4 13 -16q0 -8 -3.5 -15.5 t-5.5 -12.5q-22 -46 -58 -73.5t-90 -27.5h-6q-54 0 -90 27.5t-58 73.5q-2 5 -5.5 12.5t-3.5 15.5q0 12 13 16l49 19q7 3 13 3q10 0 15 -11q27 -59 68 -59h4z" />
<glyph unicode="&#x116;" horiz-adv-x="527" d="M52 0zM210 266q0 -31 1.5 -60t4.5 -52q2 -11 7 -14.5t15 -3.5h213q23 0 28.5 -5.5t5.5 -25.5v-74q0 -18 -5.5 -24.5t-28.5 -6.5h-241q-37 0 -64 4.5t-45.5 16.5t-28.5 32t-13 52q-5 46 -6 94.5t-1 98.5v61q0 32 1 75.5t5 85.5q3 39 13 63.5t28 38.5t46 19.5t68 5.5h239 q24 0 28.5 -5.5t4.5 -25.5v-75q0 -18 -4.5 -24t-28.5 -6h-212q-14 0 -19 -4.5t-6 -15.5q-1 -15 -1.5 -44t-1.5 -55h211q19 0 25.5 -5.5t6.5 -23.5v-70q0 -16 -6.5 -21.5t-25.5 -5.5h-213zM214 791q0 32 21.5 52t51.5 20t51.5 -20t21.5 -52t-21.5 -52t-51.5 -20t-51.5 20 t-21.5 52z" />
<glyph unicode="&#x117;" horiz-adv-x="499" d="M35 0zM300 120q24 0 55.5 4t50.5 9q4 1 9 2t10 1q15 0 18 -17l8 -50q2 -8 3 -15t1 -12q0 -10 -5 -16t-21 -11q-30 -11 -72 -17.5t-79 -6.5h-19q-60 0 -104 12.5t-70 38.5q-30 30 -40 70.5t-10 101.5v56q0 75 17 118t43 66q51 45 157 45h14q54 0 92.5 -13.5t58.5 -36.5 q26 -29 37 -71.5t11 -107.5v-52q0 -16 -7 -22t-22 -6h-240v-8q0 -35 20 -48.5t73 -13.5h11zM306 294q12 0 12 13v16q0 30 -10 46q-12 18 -46 18h-9q-29 0 -42 -14q-15 -17 -15 -54v-25h110zM180 611q0 32 21.5 52t51.5 20t51.5 -20t21.5 -52t-21.5 -52t-51.5 -20t-51.5 20 t-21.5 52z" />
<glyph unicode="&#x118;" horiz-adv-x="527" d="M210 266q0 -31 1.5 -60t4.5 -52q1 -8 6.5 -13t15.5 -5h213q23 0 28.5 -5.5t5.5 -25.5v-65q0 -17 -4.5 -23t-15.5 -11q-42 -18 -64.5 -44.5t-22.5 -55.5v-3q0 -31 27 -31h3q10 0 22 2.5t21 5.5q8 2 12 2q3 0 6.5 -2.5t5.5 -10.5l5 -21q5 -20 5 -23q0 -9 -14 -15 q-17 -7 -38 -11t-43 -4h-6q-52 0 -79 22t-27 64v3q0 35 24.5 67.5t59.5 48.5h-152q-37 0 -64 4.5t-45.5 16.5t-28.5 32t-13 52q-4 46 -5.5 94.5t-1.5 98.5v61q0 32 1.5 75.5t4.5 85.5q3 39 12.5 63.5t28 38.5t46.5 19.5t68 5.5h239q24 0 28.5 -5.5t4.5 -25.5v-75 q0 -18 -4.5 -24t-28.5 -6h-212q-14 0 -19 -4.5t-6 -15.5q-1 -15 -2 -44t-1 -55h211q19 0 25.5 -5.5t6.5 -23.5v-70q0 -16 -6.5 -21.5t-25.5 -5.5h-213z" />
<glyph unicode="&#x119;" horiz-adv-x="499" d="M300 120q24 0 55.5 4t50.5 9q4 1 9 2t10 1q15 0 18 -17l8 -50q2 -8 3 -15t1 -12q0 -10 -5.5 -15.5t-20.5 -11.5q-39 -16 -64 -48.5t-25 -63.5v-3q0 -28 27 -28h5q8 0 20 2.5t21 5.5q8 2 12 2q3 0 6.5 -2.5t5.5 -10.5l5 -21q5 -20 5 -23q0 -9 -14 -15q-17 -7 -38 -11 t-43 -4h-6q-52 0 -79 22t-27 64v3q0 27 19 57.5t52 50.5q-9 -1 -17 -1h-16h-19q-60 0 -104 12.5t-70 38.5q-30 30 -40 70.5t-10 101.5v56q0 75 17 118t43 66q51 45 157 45h14q54 0 92.5 -13.5t58.5 -36.5q26 -29 37 -71.5t11 -107.5v-52q0 -16 -7 -22t-22 -6h-240v-8 q0 -35 20 -48.5t73 -13.5h11zM306 294q12 0 12 13v16q0 30 -10 46q-12 18 -46 18h-9q-29 0 -42 -14q-15 -17 -15 -54v-25h110z" />
<glyph unicode="&#x11a;" horiz-adv-x="527" d="M52 0zM210 266q0 -31 1.5 -60t4.5 -52q2 -11 7 -14.5t15 -3.5h213q23 0 28.5 -5.5t5.5 -25.5v-74q0 -18 -5.5 -24.5t-28.5 -6.5h-241q-37 0 -64 4.5t-45.5 16.5t-28.5 32t-13 52q-5 46 -6 94.5t-1 98.5v61q0 32 1 75.5t5 85.5q3 39 13 63.5t28 38.5t46 19.5t68 5.5h239 q24 0 28.5 -5.5t4.5 -25.5v-75q0 -18 -4.5 -24t-28.5 -6h-212q-14 0 -19 -4.5t-6 -15.5q-1 -15 -1.5 -44t-1.5 -55h211q19 0 25.5 -5.5t6.5 -23.5v-70q0 -16 -6.5 -21.5t-25.5 -5.5h-213zM283 802h5l66 71q10 11 22 11q10 0 21 -9l36 -30q7 -7 7 -13q0 -9 -8 -17l-88 -102 q-8 -8 -14.5 -10.5t-13.5 -2.5h-61q-7 0 -13.5 2.5t-14.5 10.5l-88 102q-8 8 -8 17q0 6 7 13l36 30q10 9 21 9q12 0 22 -11z" />
<glyph unicode="&#x11b;" horiz-adv-x="499" d="M35 0zM300 120q24 0 55.5 4t50.5 9q4 1 9 2t10 1q15 0 18 -17l8 -50q2 -8 3 -15t1 -12q0 -10 -5 -16t-21 -11q-30 -11 -72 -17.5t-79 -6.5h-19q-60 0 -104 12.5t-70 38.5q-30 30 -40 70.5t-10 101.5v56q0 75 17 118t43 66q51 45 157 45h14q54 0 92.5 -13.5t58.5 -36.5 q26 -29 37 -71.5t11 -107.5v-52q0 -16 -7 -22t-22 -6h-240v-8q0 -35 20 -48.5t73 -13.5h11zM306 294q12 0 12 13v16q0 30 -10 46q-12 18 -46 18h-9q-29 0 -42 -14q-15 -17 -15 -54v-25h110zM253 637h5l66 71q10 11 22 11q10 0 21 -9l36 -30q7 -7 7 -13q0 -9 -8 -17l-88 -102 q-7 -9 -14 -11t-14 -2h-61q-7 0 -14 2t-14 11l-88 102q-8 8 -8 17q0 6 7 13l36 30q10 9 21 9q12 0 22 -11z" />
<glyph unicode="&#x11c;" horiz-adv-x="622" d="M46 0zM46 381q0 74 16 125t48 84q33 34 84 50t129 16h9q28 0 58 -4t58 -10.5t52.5 -15t42.5 -18.5q10 -5 13.5 -10t3.5 -11q0 -5 -1.5 -11.5t-6.5 -18.5l-26 -68q-10 -25 -32 -13q-38 20 -75 30t-80 10h-5q-68 0 -94 -37q-13 -19 -18 -47t-5 -73v-76q0 -51 6 -80.5 t21 -46.5q12 -14 31.5 -19.5t50.5 -5.5h6q14 0 27.5 1t21.5 3q11 2 15 7.5t4 17.5v92h-52q-18 0 -24 5t-6 22v67q0 19 6 25t23 6h190q18 0 24.5 -8t6.5 -25v-269q0 -19 -6.5 -29.5t-23.5 -17.5q-21 -9 -47 -15.5t-53 -11.5t-53.5 -7.5t-49.5 -2.5h-13q-81 0 -133 14t-84 46 q-34 33 -46.5 85t-12.5 130v115zM249 704q-10 -11 -22 -11q-11 0 -21 9l-36 30q-7 7 -7 13q0 9 8 17l88 102q8 8 14 10.5t14 2.5h61q8 0 14 -2.5t14 -10.5l88 -102q8 -8 8 -17q0 -6 -7 -13l-36 -30q-11 -9 -21 -9q-12 0 -22 11l-66 71h-5z" />
<glyph unicode="&#x11d;" horiz-adv-x="536" d="M35 0zM486 11q0 -51 -9.5 -87.5t-33.5 -59.5q-26 -25 -70.5 -38t-115.5 -13q-38 0 -82 6t-76 16q-14 5 -19.5 11.5t-0.5 24.5l16 59q5 16 12 20t24 0q31 -7 63.5 -11t54.5 -4q45 0 61 14t16 48v20q-17 -12 -42.5 -19t-53.5 -7h-21q-40 0 -71 11.5t-52 31.5 q-26 25 -38.5 68t-12.5 103v84q0 31 2.5 55.5t8 44t14.5 35.5t23 30q21 22 56.5 33.5t78.5 11.5h17q43 0 76.5 -12t53.5 -36h2l6 20q4 11 10.5 15t21.5 4h49q32 0 32 -31v-448zM326 304q0 23 -2.5 34.5t-8.5 19.5q-12 15 -45 15h-13q-17 0 -27.5 -3.5t-18.5 -12.5 q-10 -11 -12 -32t-2 -55v-55q0 -37 2.5 -54.5t11.5 -28.5q13 -16 47 -16h11q26 0 43 15q14 14 14 48v125zM193 561q-10 -11 -22 -11q-11 0 -21 9l-36 30q-7 7 -7 13q0 9 8 17l88 102q8 8 14 10.5t14 2.5h61q8 0 14 -2.5t14 -10.5l88 -102q8 -8 8 -17q0 -6 -7 -13l-36 -30 q-11 -9 -21 -9q-12 0 -22 11l-66 71h-5z" />
<glyph unicode="&#x11e;" horiz-adv-x="622" d="M46 0zM46 381q0 74 16 125t48 84q33 34 84 50t129 16h9q28 0 58 -4t58 -10.5t52.5 -15t42.5 -18.5q10 -5 13.5 -10t3.5 -11q0 -5 -1.5 -11.5t-6.5 -18.5l-26 -68q-10 -25 -32 -13q-38 20 -75 30t-80 10h-5q-68 0 -94 -37q-13 -19 -18 -47t-5 -73v-76q0 -51 6 -80.5 t21 -46.5q12 -14 31.5 -19.5t50.5 -5.5h6q14 0 27.5 1t21.5 3q11 2 15 7.5t4 17.5v92h-52q-18 0 -24 5t-6 22v67q0 19 6 25t23 6h190q18 0 24.5 -8t6.5 -25v-269q0 -19 -6.5 -29.5t-23.5 -17.5q-21 -9 -47 -15.5t-53 -11.5t-53.5 -7.5t-49.5 -2.5h-13q-81 0 -133 14t-84 46 q-34 33 -46.5 85t-12.5 130v115zM315 801q41 0 68 59q5 11 15 11q5 0 13 -3l49 -19q13 -4 13 -16q0 -8 -3.5 -15.5t-5.5 -12.5q-22 -46 -58 -73.5t-90 -27.5h-6q-54 0 -90 27.5t-58 73.5q-2 5 -5.5 12.5t-3.5 15.5q0 12 13 16l49 19q7 3 13 3q10 0 15 -11q27 -59 68 -59h4z " />
<glyph unicode="&#x11f;" horiz-adv-x="536" d="M35 0zM486 11q0 -51 -9.5 -87.5t-33.5 -59.5q-26 -25 -70.5 -38t-115.5 -13q-38 0 -82 6t-76 16q-14 5 -19.5 11.5t-0.5 24.5l16 59q5 16 12 20t24 0q31 -7 63.5 -11t54.5 -4q45 0 61 14t16 48v20q-17 -12 -42.5 -19t-53.5 -7h-21q-40 0 -71 11.5t-52 31.5 q-26 25 -38.5 68t-12.5 103v84q0 31 2.5 55.5t8 44t14.5 35.5t23 30q21 22 56.5 33.5t78.5 11.5h17q43 0 76.5 -12t53.5 -36h2l6 20q4 11 10.5 15t21.5 4h49q32 0 32 -31v-448zM326 304q0 23 -2.5 34.5t-8.5 19.5q-12 15 -45 15h-13q-17 0 -27.5 -3.5t-18.5 -12.5 q-10 -11 -12 -32t-2 -55v-55q0 -37 2.5 -54.5t11.5 -28.5q13 -16 47 -16h11q26 0 43 15q14 14 14 48v125zM260 644q41 0 68 59q5 11 15 11q5 0 13 -3l49 -19q13 -4 13 -16q0 -8 -3.5 -15.5t-5.5 -12.5q-22 -46 -58 -73.5t-90 -27.5h-6q-54 0 -90 27.5t-58 73.5 q-2 5 -5.5 12.5t-3.5 15.5q0 12 13 16l49 19q7 3 13 3q10 0 15 -11q27 -59 68 -59h4z" />
<glyph unicode="&#x120;" horiz-adv-x="622" d="M46 0zM46 381q0 74 16 125t48 84q33 34 84 50t129 16h9q28 0 58 -4t58 -10.5t52.5 -15t42.5 -18.5q10 -5 13.5 -10t3.5 -11q0 -5 -1.5 -11.5t-6.5 -18.5l-26 -68q-10 -25 -32 -13q-38 20 -75 30t-80 10h-5q-68 0 -94 -37q-13 -19 -18 -47t-5 -73v-76q0 -51 6 -80.5 t21 -46.5q12 -14 31.5 -19.5t50.5 -5.5h6q14 0 27.5 1t21.5 3q11 2 15 7.5t4 17.5v92h-52q-18 0 -24 5t-6 22v67q0 19 6 25t23 6h190q18 0 24.5 -8t6.5 -25v-269q0 -19 -6.5 -29.5t-23.5 -17.5q-21 -9 -47 -15.5t-53 -11.5t-53.5 -7.5t-49.5 -2.5h-13q-81 0 -133 14t-84 46 q-34 33 -46.5 85t-12.5 130v115zM239 791q0 32 21.5 52t51.5 20t51.5 -20t21.5 -52t-21.5 -52t-51.5 -20t-51.5 20t-21.5 52z" />
<glyph unicode="&#x121;" horiz-adv-x="536" d="M35 0zM486 11q0 -51 -9.5 -87.5t-33.5 -59.5q-26 -25 -70.5 -38t-115.5 -13q-38 0 -82 6t-76 16q-14 5 -19.5 11.5t-0.5 24.5l16 59q5 16 12 20t24 0q31 -7 63.5 -11t54.5 -4q45 0 61 14t16 48v20q-17 -12 -42.5 -19t-53.5 -7h-21q-40 0 -71 11.5t-52 31.5 q-26 25 -38.5 68t-12.5 103v84q0 31 2.5 55.5t8 44t14.5 35.5t23 30q21 22 56.5 33.5t78.5 11.5h17q43 0 76.5 -12t53.5 -36h2l6 20q4 11 10.5 15t21.5 4h49q32 0 32 -31v-448zM326 304q0 23 -2.5 34.5t-8.5 19.5q-12 15 -45 15h-13q-17 0 -27.5 -3.5t-18.5 -12.5 q-10 -11 -12 -32t-2 -55v-55q0 -37 2.5 -54.5t11.5 -28.5q13 -16 47 -16h11q26 0 43 15q14 14 14 48v125zM185 628q0 32 21.5 52t51.5 20t51.5 -20t21.5 -52t-21.5 -52t-51.5 -20t-51.5 20t-21.5 52z" />
<glyph unicode="&#x122;" horiz-adv-x="622" d="M46 0zM46 381q0 74 16 125t48 84q33 34 84 50t129 16h9q28 0 58 -4t58 -10.5t52.5 -15t42.5 -18.5q10 -5 13.5 -10t3.5 -11q0 -5 -1.5 -11.5t-6.5 -18.5l-26 -68q-10 -25 -32 -13q-38 20 -75 30t-80 10h-5q-68 0 -94 -37q-13 -19 -18 -47t-5 -73v-76q0 -51 6 -80.5 t21 -46.5q12 -14 31.5 -19.5t50.5 -5.5h6q14 0 27.5 1t21.5 3q11 2 15 7.5t4 17.5v92h-52q-18 0 -24 5t-6 22v67q0 19 6 25t23 6h190q18 0 24.5 -8t6.5 -25v-269q0 -19 -6.5 -29.5t-23.5 -17.5q-21 -9 -47 -15.5t-53 -11.5t-53.5 -7.5t-49.5 -2.5h-13q-81 0 -133 14t-84 46 q-34 33 -46.5 85t-12.5 130v115zM334 -56q30 0 43 -15t13 -47v-18q0 -43 -20 -82.5t-56 -72.5q-10 -10 -18 -10q-7 0 -19 11l-25 23q-6 6 -6 12q0 5 3.5 9t9.5 11t11 13t9 11q5 6 8.5 11t3.5 10q0 3 -4 6q-15 8 -23 19t-8 33v21q0 26 14.5 40.5t42.5 14.5h21z" />
<glyph unicode="&#x123;" horiz-adv-x="536" d="M35 0zM486 11q0 -51 -9.5 -87.5t-33.5 -59.5q-26 -25 -70.5 -38t-115.5 -13q-38 0 -82 6t-76 16q-14 5 -19.5 11.5t-0.5 24.5l16 59q5 16 12 20t24 0q31 -7 63.5 -11t54.5 -4q45 0 61 14t16 48v20q-17 -12 -42.5 -19t-53.5 -7h-21q-40 0 -71 11.5t-52 31.5 q-26 25 -38.5 68t-12.5 103v84q0 31 2.5 55.5t8 44t14.5 35.5t23 30q21 22 56.5 33.5t78.5 11.5h17q43 0 76.5 -12t53.5 -36h2l6 20q4 11 10.5 15t21.5 4h49q32 0 32 -31v-448zM326 304q0 23 -2.5 34.5t-8.5 19.5q-12 15 -45 15h-13q-17 0 -27.5 -3.5t-18.5 -12.5 q-10 -11 -12 -32t-2 -55v-55q0 -37 2.5 -54.5t11.5 -28.5q13 -16 47 -16h11q26 0 43 15q14 14 14 48v125zM248.015 550.996q-29.998 0 -42.9971 15q-12.999 14.999 -12.999 46.9971v17.999q0 42.9971 19.999 82.4941q19.998 39.498 55.9961 72.4961 q9.99902 9.99902 17.999 9.99902q6.99902 0 18.999 -10.999l24.998 -22.999q6 -5.99902 6 -11.999q0 -5 -3.5 -8.99902q-3.5 -4 -9.49902 -11q-6 -6.99902 -11 -12.999q-4.99902 -6 -8.99902 -10.999q-5 -6 -8.5 -10.999q-3.49902 -5 -3.49902 -10q0 -3 3.99902 -6 q14.999 -7.99902 22.999 -18.998q7.99902 -11 7.99902 -32.998v-20.999q0 -25.998 -14.499 -40.4971q-14.499 -14.5 -42.4971 -14.5h-20.999z" />
<glyph unicode="&#x124;" horiz-adv-x="657" d="M64 0zM593 31q0 -21 -6 -26t-29 -5h-97q-23 0 -29.5 5t-6.5 26v226h-193v-226q0 -21 -6 -26t-29 -5h-99q-23 0 -28.5 5t-5.5 26v585q0 21 6 26t29 5h98q23 0 29 -5t6 -26v-223h193v223q0 21 6 26t29 5h98q23 0 29 -5t6 -26v-585zM260 704q-10 -11 -22 -11q-11 0 -21 9 l-36 30q-7 7 -7 13q0 9 8 17l88 102q8 8 14 10.5t14 2.5h61q8 0 14 -2.5t14 -10.5l88 -102q8 -8 8 -17q0 -6 -7 -13l-36 -30q-11 -9 -21 -9q-12 0 -22 11l-66 71h-5z" />
<glyph unicode="&#x125;" horiz-adv-x="531" d="M0 0zM266 371q-32 0 -44 -13q-11 -12 -11 -46v-283q0 -14 -7 -21.5t-27 -7.5h-92q-20 0 -27 7.5t-7 21.5v619q0 14 7 21.5t27 7.5h92q20 0 27 -7.5t7 -21.5v-176h2q44 27 107 27h3q88 0 127 -41q20 -21 28.5 -51t8.5 -81v-297q0 -14 -7 -21.5t-27 -7.5h-92q-20 0 -27 7.5 t-7 21.5v283q0 34 -11 46q-12 13 -44 13h-6zM63 724q-10 -11 -22 -11q-11 0 -21 9l-36 30q-7 7 -7 13q0 9 8 17l88 102q8 8 14 10.5t14 2.5h61q8 0 14 -2.5t14 -10.5l88 -102q8 -8 8 -17q0 -6 -7 -13l-36 -30q-11 -9 -21 -9q-12 0 -22 11l-66 71h-5z" />
<glyph unicode="&#x126;" horiz-adv-x="665" d="M597 569h33q14 0 19.5 -7t5.5 -21v-46q0 -16 -5.5 -22t-19.5 -6h-33v-436q0 -21 -6 -26t-29 -5h-97q-23 0 -29.5 5t-6.5 26v226h-193v-226q0 -21 -6 -26t-29 -5h-99q-23 0 -28.5 5t-5.5 26v436h-33q-14 0 -19.5 6t-5.5 22v46q0 14 5.5 21t19.5 7h33v47q0 21 6 26t29 5h98 q23 0 29 -5t6 -26v-47h193v47q0 21 6 26t29 5h98q23 0 29 -5t6 -26v-47zM429 393v74h-193v-74h193z" />
<glyph unicode="&#x127;" horiz-adv-x="531" d="M211 29q0 -14 -7 -21.5t-27 -7.5h-92q-20 0 -27 7.5t-7 21.5v504h-38q-14 0 -19.5 6t-5.5 22v31q0 14 5.5 21t19.5 7h38v28q0 14 7 21.5t27 7.5h92q20 0 27 -7.5t7 -21.5v-28h77q14 0 19.5 -7t5.5 -21v-31q0 -16 -5.5 -22t-19.5 -6h-77v-61h2q44 27 107 27h3 q88 0 127 -41q20 -21 28.5 -51t8.5 -81v-297q0 -14 -7 -21.5t-27 -7.5h-92q-20 0 -27 7.5t-7 21.5v283q0 34 -11 46q-12 13 -44 13h-6q-32 0 -44 -13q-11 -12 -11 -46v-283z" />
<glyph unicode="&#x128;" horiz-adv-x="300" d="M0 0zM234 31q0 -21 -6 -26t-29 -5h-98q-23 0 -29 5t-6 26v585q0 21 6 26t29 5h98q23 0 29 -5t6 -26v-585zM-13 727q-8 5 -8 12q0 6 3 14q20 48 50 71.5t62 23.5q20 0 34.5 -5.5t28.5 -14.5l19 -12q23 -14 35 -14t22 7.5t21 24.5q5 8 13 8q5 0 13 -5l38 -26q9 -8 9 -14 t-4 -13.5t-8 -12.5q-46 -69 -107 -69q-30 0 -56 16l-20 13q-20 13 -34 13q-9 0 -18.5 -6.5t-23.5 -28.5q-6 -9 -14 -9q-5 0 -12 3z" />
<glyph unicode="&#x129;" horiz-adv-x="266" d="M0 0zM213 29q0 -14 -7 -21.5t-27 -7.5h-92q-20 0 -27 7.5t-7 21.5v432q0 14 7 21.5t27 7.5h92q20 0 27 -7.5t7 -21.5v-432zM-31 566q-8 5 -8 12q0 6 3 14q20 48 50 71.5t62 23.5q20 0 34.5 -5.5t28.5 -14.5l19 -12q23 -14 35 -14t22 7.5t21 24.5q5 8 13 8q5 0 13 -5 l38 -26q9 -8 9 -14t-4 -13.5t-8 -12.5q-46 -69 -107 -69q-30 0 -56 16l-20 13q-20 13 -34 13q-9 0 -18.5 -6.5t-23.5 -28.5q-6 -9 -14 -9q-5 0 -12 3z" />
<glyph unicode="&#x12a;" horiz-adv-x="300" d="M16 0zM234 31q0 -21 -6 -26t-29 -5h-98q-23 0 -29 5t-6 26v585q0 21 6 26t29 5h98q23 0 29 -5t6 -26v-585zM43 727q-15 0 -21 5.5t-6 18.5v50q0 13 6 18.5t21 5.5h216q15 0 21 -5.5t6 -18.5v-50q0 -13 -6 -18.5t-21 -5.5h-216z" />
<glyph unicode="&#x12b;" horiz-adv-x="266" d="M0 0zM213 29q0 -14 -7 -21.5t-27 -7.5h-92q-20 0 -27 7.5t-7 21.5v432q0 14 7 21.5t27 7.5h92q20 0 27 -7.5t7 -21.5v-432zM25 571q-26 0 -26 24v49q0 25 26 25h218q26 0 26 -25v-49q0 -24 -26 -24h-218z" />
<glyph unicode="&#x12c;" horiz-adv-x="300" d="M0 0zM234 31q0 -21 -6 -26t-29 -5h-98q-23 0 -29 5t-6 26v585q0 21 6 26t29 5h98q23 0 29 -5t6 -26v-585zM153 801q41 0 68 59q5 11 15 11q5 0 13 -3l49 -19q13 -4 13 -16q0 -8 -3.5 -15.5t-5.5 -12.5q-22 -46 -58 -73.5t-90 -27.5h-6q-54 0 -90 27.5t-58 73.5 q-2 5 -5.5 12.5t-3.5 15.5q0 12 13 16l49 19q7 3 13 3q10 0 15 -11q27 -59 68 -59h4z" />
<glyph unicode="&#x12d;" horiz-adv-x="266" d="M0 0zM213 29q0 -14 -7 -21.5t-27 -7.5h-92q-20 0 -27 7.5t-7 21.5v432q0 14 7 21.5t27 7.5h92q20 0 27 -7.5t7 -21.5v-432zM136 638q41 0 68 59q5 11 15 11q5 0 13 -3l49 -19q13 -4 13 -16q0 -8 -3.5 -15.5t-5.5 -12.5q-22 -46 -58 -73.5t-90 -27.5h-6q-54 0 -90 27.5 t-58 73.5q-2 5 -5.5 12.5t-3.5 15.5q0 12 13 16l49 19q7 3 13 3q10 0 15 -11q27 -59 68 -59h4z" />
<glyph unicode="&#x12e;" horiz-adv-x="300" d="M101 0q-23 0 -29 5t-6 26v585q0 21 6 26t29 5h98q23 0 29 -5t6 -26v-585q0 -20 -13 -28q-35 -19 -55.5 -46.5t-20.5 -57.5v-3q0 -24 27 -24h3q10 0 22 2.5t21 5.5q8 2 12 2q3 0 6.5 -2.5t5.5 -10.5l5 -21q5 -20 5 -23q0 -9 -14 -15q-17 -7 -38 -11t-43 -4h-6 q-52 0 -79 22t-27 64v3q0 28 19.5 62.5t57.5 53.5h-21z" />
<glyph unicode="&#x12f;" horiz-adv-x="266" d="M213 30q0 -14 -3.5 -19.5t-16.5 -8.5q-22 -6 -42.5 -16t-36.5 -23.5t-25.5 -28.5t-9.5 -31v-3q0 -14 8 -21t21 -7h3q10 0 21 2t20 5l6 2t6 1t6.5 -2.5t5.5 -10.5l5 -21q5 -20 5 -23q0 -9 -14 -15q-17 -7 -38 -11t-43 -4h-6q-52 0 -79 22t-27 64v3q0 31 20.5 63.5 t53.5 55.5v458q0 14 7 21.5t27 7.5h92q20 0 27 -7.5t7 -21.5v-431zM127 528q-44 0 -62.5 21.5t-18.5 61.5v5q0 40 18.5 61.5t62.5 21.5h12q44 0 62.5 -21.5t18.5 -61.5v-5q0 -40 -18.5 -61.5t-62.5 -21.5h-12z" />
<glyph unicode="&#x130;" horiz-adv-x="300" d="M66 0zM234 31q0 -21 -6 -26t-29 -5h-98q-23 0 -29 5t-6 26v585q0 21 6 26t29 5h98q23 0 29 -5t6 -26v-585zM79 791q0 32 21.5 52t51.5 20t51.5 -20t21.5 -52t-21.5 -52t-51.5 -20t-51.5 20t-21.5 52z" />
<glyph unicode="&#x131;" horiz-adv-x="266" d="M213 29q0 -14 -7 -21.5t-27 -7.5h-92q-20 0 -27 7.5t-7 21.5v432q0 14 7 21.5t27 7.5h92q20 0 27 -7.5t7 -21.5v-432z" />
<glyph unicode="&#x132;" horiz-adv-x="675" d="M66 0zM234 31q0 -21 -6 -26t-29 -5h-98q-23 0 -29 5t-6 26v585q0 21 6 26t29 5h98q23 0 29 -5t6 -26v-585zM619 213q0 -39 -2 -68.5t-7 -51t-15 -37t-26 -26.5q-29 -20 -67.5 -25t-89.5 -5h-65q-18 0 -25.5 7t-7.5 27v68q0 23 7.5 29.5t27.5 6.5h48q14 0 25.5 1t18.5 8 t8.5 21t1.5 50v398q0 21 6.5 26t29.5 5h98q23 0 28.5 -5t5.5 -26v-403z" />
<glyph unicode="&#x133;" horiz-adv-x="529" d="M46 0zM213 29q0 -14 -7 -21.5t-27 -7.5h-92q-20 0 -27 7.5t-7 21.5v432q0 14 7 21.5t27 7.5h92q20 0 27 -7.5t7 -21.5v-432zM127 528q-44 0 -62.5 21.5t-18.5 61.5v5q0 40 18.5 61.5t62.5 21.5h12q44 0 62.5 -21.5t18.5 -61.5v-5q0 -40 -18.5 -61.5t-62.5 -21.5h-12z M240 -178q-15 0 -21.5 6.5t-6.5 25.5v70q0 17 6.5 23t21.5 6h25q17 0 25 3t16 11q8 9 10 23.5t2 38.5v432q0 14 7 21.5t27 7.5h92q20 0 27 -7.5t7 -21.5v-443q0 -57 -8.5 -91.5t-30.5 -59.5t-56 -35t-85 -10h-58zM392 528q-44 0 -62.5 21.5t-18.5 61.5v5q0 40 18.5 61.5 t62.5 21.5h12q44 0 62.5 -21.5t18.5 -61.5v-5q0 -40 -18.5 -61.5t-62.5 -21.5h-12z" />
<glyph unicode="&#x134;" horiz-adv-x="375" d="M14 0zM319 213q0 -39 -2 -68.5t-7 -51t-15 -37t-26 -26.5q-29 -20 -67.5 -25t-89.5 -5h-65q-18 0 -25.5 7t-7.5 27v68q0 23 7.5 29.5t27.5 6.5h48q14 0 25.5 1t18.5 8t8.5 21t1.5 50v398q0 21 6.5 26t29.5 5h98q23 0 28.5 -5t5.5 -26v-403zM164 704q-10 -11 -22 -11 q-11 0 -21 9l-36 30q-7 7 -7 13q0 9 8 17l88 102q8 8 14 10.5t14 2.5h61q8 0 14 -2.5t14 -10.5l88 -102q8 -8 8 -17q0 -6 -7 -13l-36 -30q-11 -9 -21 -9q-12 0 -22 11l-66 71h-5z" />
<glyph unicode="&#x135;" horiz-adv-x="266" d="M-25 -178q-15 0 -21.5 6.5t-6.5 25.5v70q0 17 6.5 23t21.5 6h25q17 0 25 3t16 11q8 9 10 23.5t2 38.5v432q0 14 7 21.5t27 7.5h92q20 0 27 -7.5t7 -21.5v-443q0 -57 -8.5 -91.5t-30.5 -59.5t-56 -35t-85 -10h-58zM65 539q-10 -11 -22 -11q-11 0 -21 9l-36 30q-7 7 -7 13 q0 9 8 17l88 102q8 8 14 10.5t14 2.5h61q8 0 14 -2.5t14 -10.5l88 -102q8 -8 8 -17q0 -6 -7 -13l-36 -30q-11 -9 -21 -9q-12 0 -22 11l-66 71h-5z" />
<glyph unicode="&#x136;" horiz-adv-x="595" d="M64 0zM232 31q0 -21 -6 -26t-29 -5h-98q-23 0 -29 5t-6 26v585q0 21 6 26t29 5h98q23 0 29 -5t6 -26v-218h5q7 0 10 3.5t8 11.5l136 209q9 14 19.5 19.5t30.5 5.5h110q51 0 25 -38l-182 -252q-6 -8 -9.5 -12.5t-3.5 -9.5t4 -10t9 -13l187 -281q19 -31 -27 -31h-106 q-26 0 -36.5 4.5t-18.5 18.5l-135 224q-6 11 -10 14t-10 3h-6v-233zM325 -56q30 0 43 -15t13 -47v-18q0 -43 -20 -82.5t-56 -72.5q-10 -10 -18 -10q-7 0 -19 11l-25 23q-6 6 -6 12q0 5 3.5 9t9.5 11t11 13t9 11q5 6 8.5 11t3.5 10q0 3 -4 6q-15 8 -23 19t-8 33v21 q0 26 14.5 40.5t42.5 14.5h21z" />
<glyph unicode="&#x137;" horiz-adv-x="494" d="M51 0zM211 29q0 -14 -7 -21.5t-27 -7.5h-92q-20 0 -27 7.5t-7 21.5v619q0 14 7 21.5t27 7.5h92q20 0 27 -7.5t7 -21.5v-326h7l95 145q8 14 16.5 18.5t25.5 4.5h116q17 0 17 -12q0 -6 -8 -19l-115 -172q-13 -20 -13 -30q0 -7 3 -13t10 -17l123 -194q3 -5 4.5 -8.5 t1.5 -8.5q0 -16 -21 -16h-111q-21 0 -30.5 5t-18.5 21l-95 168h-7v-165zM273 -56q30 0 43 -15t13 -47v-18q0 -43 -20 -82.5t-56 -72.5q-10 -10 -18 -10q-7 0 -19 11l-25 23q-6 6 -6 12q0 5 3.5 9t9.5 11t11 13t9 11q5 6 8.5 11t3.5 10q0 3 -4 6q-15 8 -23 19t-8 33v21 q0 26 14.5 40.5t42.5 14.5h21z" />
<glyph unicode="&#x138;" horiz-adv-x="494" d="M211 29q0 -14 -7 -21.5t-27 -7.5h-92q-20 0 -27 7.5t-7 21.5v431q0 14 7 21.5t27 7.5h92q20 0 27 -7.5t7 -21.5v-138h7l95 145q8 14 16.5 18.5t25.5 4.5h116q17 0 17 -12q0 -6 -8 -19l-115 -172q-13 -20 -13 -30q0 -7 3 -13t10 -17l123 -194q3 -5 4.5 -8.5t1.5 -8.5 q0 -16 -21 -16h-111q-21 0 -30.5 5t-18.5 21l-95 168h-7v-165z" />
<glyph unicode="&#x139;" horiz-adv-x="475" d="M46 0zM230 159q0 -11 5 -17t19 -6h160q24 0 29.5 -6t5.5 -26v-72q0 -19 -5.5 -25.5t-29.5 -6.5h-242q-62 0 -86 24.5t-24 83.5v508q0 21 6 26t29 5h99q23 0 28.5 -5t5.5 -26v-457zM228 894q11 7 19 7q7 0 11.5 -5t7.5 -10l38 -62q7 -11 7 -21q0 -14 -19 -24l-169 -89 q-10 -5 -21 -5q-6 0 -10.5 4t-11.5 13l-26 38q-8 12 -8 21q0 11 11 18z" />
<glyph unicode="&#x13a;" horiz-adv-x="306" d="M25 0zM262 130q15 0 22 -7t7 -27v-62q0 -20 -7 -27t-22 -7h-76q-75 0 -105 29q-17 16 -23.5 39.5t-6.5 61.5v518q0 14 7 21.5t27 7.5h92q20 0 27 -7.5t7 -21.5v-499q0 -11 4 -15t15 -4h32zM191 936q10 9 19 9q11 0 20 -13l48 -62q6 -8 6 -17q0 -8 -4 -13t-12 -11 l-158 -108q-11 -7 -20 -7q-8 0 -12 3t-12 11l-30 35q-11 14 -11 23q0 10 9 16z" />
<glyph unicode="&#x13b;" horiz-adv-x="475" d="M62 0zM230 159q0 -11 5 -17t19 -6h160q24 0 29.5 -6t5.5 -26v-72q0 -19 -5.5 -25.5t-29.5 -6.5h-242q-62 0 -86 24.5t-24 83.5v508q0 21 6 26t29 5h99q23 0 28.5 -5t5.5 -26v-457zM266 -56q30 0 43 -15t13 -47v-18q0 -43 -20 -82.5t-56 -72.5q-10 -10 -18 -10 q-7 0 -19 11l-25 23q-6 6 -6 12q0 5 3.5 9t9.5 11t11 13t9 11q5 6 8.5 11t3.5 10q0 3 -4 6q-15 8 -23 19t-8 33v21q0 26 14.5 40.5t42.5 14.5h21z" />
<glyph unicode="&#x13c;" horiz-adv-x="306" d="M51 0zM262 130q15 0 22 -7t7 -27v-62q0 -20 -7 -27t-22 -7h-76q-75 0 -105 29q-17 16 -23.5 39.5t-6.5 61.5v518q0 14 7 21.5t27 7.5h92q20 0 27 -7.5t7 -21.5v-499q0 -11 4 -15t15 -4h32zM191 -56q30 0 43 -15t13 -47v-18q0 -43 -20 -82.5t-56 -72.5q-10 -10 -18 -10 q-7 0 -19 11l-25 23q-6 6 -6 12q0 5 3.5 9t9.5 11t11 13t9 11q5 6 8.5 11t3.5 10q0 3 -4 6q-15 8 -23 19t-8 33v21q0 26 14.5 40.5t42.5 14.5h21z" />
<glyph unicode="&#x13d;" horiz-adv-x="475" d="M62 0zM230 159q0 -11 5 -17t19 -6h160q24 0 29.5 -6t5.5 -26v-72q0 -19 -5.5 -25.5t-29.5 -6.5h-242q-62 0 -86 24.5t-24 83.5v508q0 21 6 26t29 5h99q23 0 28.5 -5t5.5 -26v-457zM266 -56q30 0 43 -15t13 -47v-18q0 -43 -20 -82.5t-56 -72.5q-10 -10 -18 -10 q-7 0 -19 11l-25 23q-6 6 -6 12q0 5 3.5 9t9.5 11t11 13t9 11q5 6 8.5 11t3.5 10q0 3 -4 6q-15 8 -23 19t-8 33v21q0 26 14.5 40.5t42.5 14.5h21z" />
<glyph unicode="&#x13e;" horiz-adv-x="388" d="M51 0zM262 130q15 0 22 -7t7 -27v-62q0 -20 -7 -27t-22 -7h-76q-75 0 -105 29q-17 16 -23.5 39.5t-6.5 61.5v518q0 14 7 21.5t27 7.5h92q20 0 27 -7.5t7 -21.5v-499q0 -11 4 -15t15 -4h32zM332 735q30 0 43 -15t13 -47v-18q0 -43 -20 -82.5t-56 -72.5q-10 -10 -18 -10 q-7 0 -19 11l-25 23q-6 6 -6 12q0 5 3.5 9t9.5 11t11 13t9 11q5 6 8.5 11t3.5 10q0 3 -4 6q-15 8 -23 19t-8 33v21q0 26 14.5 40.5t42.5 14.5h21z" />
<glyph unicode="&#x13f;" horiz-adv-x="475" d="M62 0zM230 159q0 -11 5 -17t19 -6h160q24 0 29.5 -6t5.5 -26v-72q0 -19 -5.5 -25.5t-29.5 -6.5h-242q-62 0 -86 24.5t-24 83.5v508q0 21 6 26t29 5h99q23 0 28.5 -5t5.5 -26v-457zM302 365q0 32 21.5 52t51.5 20t51.5 -20t21.5 -52t-21.5 -52t-51.5 -20t-51.5 20 t-21.5 52z" />
<glyph unicode="&#x140;" horiz-adv-x="430" d="M51 0zM262 130q15 0 22 -7t7 -27v-62q0 -20 -7 -27t-22 -7h-76q-75 0 -105 29q-17 16 -23.5 39.5t-6.5 61.5v518q0 14 7 21.5t27 7.5h92q20 0 27 -7.5t7 -21.5v-499q0 -11 4 -15t15 -4h32zM271 361q0 32 21.5 52t51.5 20t51.5 -20t21.5 -52t-21.5 -52t-51.5 -20t-51.5 20 t-21.5 52z" />
<glyph unicode="&#x141;" horiz-adv-x="496" d="M251 159q0 -11 5 -17t19 -6h160q24 0 29.5 -6t5.5 -26v-72q0 -19 -5.5 -25.5t-29.5 -6.5h-242q-62 0 -86 24.5t-24 83.5v127l-49 -33q-5 -4 -13 -4q-11 0 -11 14v87q0 9 2.5 15t12.5 13l58 39v250q0 21 6 26t29 5h99q23 0 28.5 -5t5.5 -26v-138l75 51q7 4 13 4 q11 0 11 -14v-87q0 -9 -2.5 -15t-12.5 -13l-84 -57v-188z" />
<glyph unicode="&#x142;" horiz-adv-x="335" d="M291 130q15 0 22 -7t7 -27v-62q0 -20 -7 -27t-22 -7h-76q-75 0 -105 29q-17 16 -23.5 39.5t-6.5 61.5v108l-33 -21q-10 -6 -15.5 -9t-10.5 -3q-11 0 -11 18v93q0 16 5 23t19 16l46 29v264q0 14 7 21.5t27 7.5h92q20 0 27 -7.5t7 -21.5v-162l45 29q10 6 15.5 9t10.5 3 q11 0 11 -18v-93q0 -16 -5 -23t-19 -16l-58 -37v-191q0 -11 4 -15t15 -4h32z" />
<glyph unicode="&#x143;" horiz-adv-x="649" d="M64 0zM222 337h-2v-303q0 -21 -7.5 -27.5t-27.5 -6.5h-84q-20 0 -28.5 6.5t-8.5 27.5v580q0 20 8 26.5t27 6.5h44q24 0 38 -5.5t26 -22.5l220 -328h2v322q0 21 8.5 27.5t28.5 6.5h84q20 0 27.5 -6.5t7.5 -27.5v-580q0 -20 -8 -26.5t-27 -6.5h-44q-24 0 -38 5.5t-26 22.5z M410 894q11 7 19 7q7 0 11.5 -5t7.5 -10l38 -62q7 -11 7 -21q0 -14 -19 -24l-169 -89q-10 -5 -21 -5q-6 0 -10.5 4t-11.5 13l-26 38q-8 12 -8 21q0 11 11 18z" />
<glyph unicode="&#x144;" horiz-adv-x="531" d="M51 0zM323 499q88 0 127 -41q20 -21 28.5 -51t8.5 -81v-297q0 -14 -7 -21.5t-27 -7.5h-92q-20 0 -27 7.5t-7 21.5v283q0 34 -11 46q-12 13 -44 13h-6q-32 0 -44 -13q-11 -12 -11 -46v-283q0 -14 -7 -21.5t-27 -7.5h-92q-20 0 -27 7.5t-7 21.5v433q0 15 7 21.5t27 6.5h47 q17 0 24.5 -4.5t12.5 -18.5l6 -19h3q48 51 137 51h8zM331 756q10 9 19 9q11 0 20 -13l48 -62q6 -8 6 -17q0 -8 -4 -13t-12 -11l-158 -108q-11 -7 -20 -7q-8 0 -12 3t-12 11l-30 35q-11 14 -11 23q0 10 9 16z" />
<glyph unicode="&#x145;" horiz-adv-x="649" d="M64 0zM222 337h-2v-303q0 -21 -7.5 -27.5t-27.5 -6.5h-84q-20 0 -28.5 6.5t-8.5 27.5v580q0 20 8 26.5t27 6.5h44q24 0 38 -5.5t26 -22.5l220 -328h2v322q0 21 8.5 27.5t28.5 6.5h84q20 0 27.5 -6.5t7.5 -27.5v-580q0 -20 -8 -26.5t-27 -6.5h-44q-24 0 -38 5.5t-26 22.5z M340 -56q30 0 43 -15t13 -47v-18q0 -43 -20 -82.5t-56 -72.5q-10 -10 -18 -10q-7 0 -19 11l-25 23q-6 6 -6 12q0 5 3.5 9t9.5 11t11 13t9 11q5 6 8.5 11t3.5 10q0 3 -4 6q-15 8 -23 19t-8 33v21q0 26 14.5 40.5t42.5 14.5h21z" />
<glyph unicode="&#x146;" horiz-adv-x="531" d="M51 0zM323 499q88 0 127 -41q20 -21 28.5 -51t8.5 -81v-297q0 -14 -7 -21.5t-27 -7.5h-92q-20 0 -27 7.5t-7 21.5v283q0 34 -11 46q-12 13 -44 13h-6q-32 0 -44 -13q-11 -12 -11 -46v-283q0 -14 -7 -21.5t-27 -7.5h-92q-20 0 -27 7.5t-7 21.5v433q0 15 7 21.5t27 6.5h47 q17 0 24.5 -4.5t12.5 -18.5l6 -19h3q48 51 137 51h8zM282 -56q30 0 43 -15t13 -47v-18q0 -43 -20 -82.5t-56 -72.5q-10 -10 -18 -10q-7 0 -19 11l-25 23q-6 6 -6 12q0 5 3.5 9t9.5 11t11 13t9 11q5 6 8.5 11t3.5 10q0 3 -4 6q-15 8 -23 19t-8 33v21q0 26 14.5 40.5 t42.5 14.5h21z" />
<glyph unicode="&#x147;" horiz-adv-x="649" d="M64 0zM222 337h-2v-303q0 -21 -7.5 -27.5t-27.5 -6.5h-84q-20 0 -28.5 6.5t-8.5 27.5v580q0 20 8 26.5t27 6.5h44q24 0 38 -5.5t26 -22.5l220 -328h2v322q0 21 8.5 27.5t28.5 6.5h84q20 0 27.5 -6.5t7.5 -27.5v-580q0 -20 -8 -26.5t-27 -6.5h-44q-24 0 -38 5.5t-26 22.5z M324 802h5l66 71q10 11 22 11q10 0 21 -9l36 -30q7 -7 7 -13q0 -9 -8 -17l-88 -102q-8 -8 -14.5 -10.5t-13.5 -2.5h-61q-7 0 -13.5 2.5t-14.5 10.5l-88 102q-8 8 -8 17q0 6 7 13l36 30q10 9 21 9q12 0 22 -11z" />
<glyph unicode="&#x148;" horiz-adv-x="531" d="M51 0zM323 499q88 0 127 -41q20 -21 28.5 -51t8.5 -81v-297q0 -14 -7 -21.5t-27 -7.5h-92q-20 0 -27 7.5t-7 21.5v283q0 34 -11 46q-12 13 -44 13h-6q-32 0 -44 -13q-11 -12 -11 -46v-283q0 -14 -7 -21.5t-27 -7.5h-92q-20 0 -27 7.5t-7 21.5v433q0 15 7 21.5t27 6.5h47 q17 0 24.5 -4.5t12.5 -18.5l6 -19h3q48 51 137 51h8zM272 637h5l66 71q10 11 22 11q10 0 21 -9l36 -30q7 -7 7 -13q0 -9 -8 -17l-88 -102q-7 -9 -14 -11t-14 -2h-61q-7 0 -14 2t-14 11l-88 102q-8 8 -8 17q0 6 7 13l36 30q10 9 21 9q12 0 22 -11z" />
<glyph unicode="&#x149;" horiz-adv-x="531" d="M0 0zM323 499q88 0 127 -41q20 -21 28.5 -51t8.5 -81v-297q0 -14 -7 -21.5t-27 -7.5h-92q-20 0 -27 7.5t-7 21.5v283q0 34 -11 46q-12 13 -44 13h-6q-32 0 -44 -13q-11 -12 -11 -46v-283q0 -14 -7 -21.5t-27 -7.5h-92q-20 0 -27 7.5t-7 21.5v433q0 15 7 21.5t27 6.5h47 q17 0 24.5 -4.5t12.5 -18.5l6 -19h3q48 51 137 51h8zM32 839q46 0 65 -22t19 -67v-13q0 -21 -6.5 -49.5t-19.5 -60.5t-33.5 -66t-47.5 -65q-9 -11 -20 -11q-6 0 -16 5l-50 30q-9 5 -9 13t6 16q11 14 20.5 28.5t19.5 29.5q8 11 13 21.5t5 19.5q0 8 -8 13l-10 7 q-14 11 -19.5 24.5t-5.5 38.5v28q0 38 19 59t64 21h14z" />
<glyph unicode="&#x14a;" horiz-adv-x="649" d="M585 30q0 -39 -3 -67t-9 -48t-15.5 -35t-22.5 -27q-27 -26 -65.5 -36.5t-89.5 -10.5h-49q-18 0 -25.5 7t-7.5 27v56q0 23 7.5 29.5t27.5 6.5h37q38 0 52.5 13.5t14.5 54.5q-20 0 -33 5.5t-22 22.5l-160 307h-2v-301q0 -21 -7.5 -27.5t-27.5 -6.5h-84q-20 0 -28.5 6.5 t-8.5 27.5v580q0 20 8 26.5t27 6.5h62q24 0 38 -5.5t26 -22.5l202 -384h2v378q0 21 8.5 27.5t28.5 6.5h84q20 0 27.5 -6.5t7.5 -27.5v-583z" />
<glyph unicode="&#x14b;" horiz-adv-x="531" d="M487 37q0 -57 -8.5 -97.5t-30.5 -65.5t-55.5 -38.5t-90.5 -13.5h-53q-15 0 -21.5 6.5t-6.5 25.5v62q0 17 6.5 23t21.5 6h25q32 0 42.5 20t10.5 56v291q0 34 -11 46q-12 13 -44 13h-6q-32 0 -44 -13q-11 -12 -11 -46v-283q0 -14 -7 -21.5t-27 -7.5h-92q-20 0 -27 7.5 t-7 21.5v433q0 15 7 21.5t27 6.5h47q17 0 24.5 -4.5t12.5 -18.5l6 -19h3q48 51 137 51h8q88 0 127 -41q20 -21 28.5 -51t8.5 -81v-289z" />
<glyph unicode="&#x14c;" horiz-adv-x="636" d="M46 0zM419 342q0 56 -5 94t-23 56q-12 12 -27.5 18t-38.5 6h-14q-23 0 -38.5 -6t-27.5 -18q-18 -18 -23 -56t-5 -94v-37q0 -56 5 -94t23 -56q12 -12 27.5 -18t38.5 -6h14q23 0 38.5 6t27.5 18q18 18 23 56t5 94v37zM590 285q0 -87 -18.5 -148.5t-65.5 -98.5 q-29 -23 -74 -35t-110 -12h-8q-65 0 -110 12t-74 35q-47 37 -65.5 98.5t-18.5 148.5v77q0 87 18.5 148.5t65.5 98.5q29 23 74 35t110 12h8q65 0 110 -12t74 -35q47 -37 65.5 -98.5t18.5 -148.5v-77zM205 727q-15 0 -21 5.5t-6 18.5v50q0 13 6 18.5t21 5.5h216q15 0 21 -5.5 t6 -18.5v-50q0 -13 -6 -18.5t-21 -5.5h-216z" />
<glyph unicode="&#x14d;" horiz-adv-x="516" d="M35 0zM196 206q0 -33 3.5 -49t14.5 -27q14 -14 42 -14h4q28 0 42 14q11 11 14.5 27t3.5 49v78q0 33 -3.5 49t-14.5 27q-14 14 -42 14h-4q-28 0 -42 -14q-11 -11 -14.5 -27t-3.5 -49v-78zM481 213q0 -38 -4 -67t-12 -50.5t-19.5 -37.5t-27.5 -28q-22 -17 -61 -28t-93 -11 h-12q-54 0 -93 11t-61 28q-16 12 -27.5 28t-19.5 37.5t-12 50.5t-4 67v64q0 38 4 67t12 50.5t19.5 37.5t27.5 28q22 17 61 28t93 11h12q54 0 93 -11t61 -28q16 -12 27.5 -28t19.5 -37.5t12 -50t4 -66.5v-65zM150 571q-26 0 -26 24v49q0 25 26 25h218q26 0 26 -25v-49 q0 -24 -26 -24h-218z" />
<glyph unicode="&#x14e;" horiz-adv-x="636" d="M46 0zM419 342q0 56 -5 94t-23 56q-12 12 -27.5 18t-38.5 6h-14q-23 0 -38.5 -6t-27.5 -18q-18 -18 -23 -56t-5 -94v-37q0 -56 5 -94t23 -56q12 -12 27.5 -18t38.5 -6h14q23 0 38.5 6t27.5 18q18 18 23 56t5 94v37zM590 285q0 -87 -18.5 -148.5t-65.5 -98.5 q-29 -23 -74 -35t-110 -12h-8q-65 0 -110 12t-74 35q-47 37 -65.5 98.5t-18.5 148.5v77q0 87 18.5 148.5t65.5 98.5q29 23 74 35t110 12h8q65 0 110 -12t74 -35q47 -37 65.5 -98.5t18.5 -148.5v-77zM316 801q41 0 68 59q5 11 15 11q5 0 13 -3l49 -19q13 -4 13 -16 q0 -8 -3.5 -15.5t-5.5 -12.5q-22 -46 -58 -73.5t-90 -27.5h-6q-54 0 -90 27.5t-58 73.5q-2 5 -5.5 12.5t-3.5 15.5q0 12 13 16l49 19q7 3 13 3q10 0 15 -11q27 -59 68 -59h4z" />
<glyph unicode="&#x14f;" horiz-adv-x="516" d="M35 0zM196 206q0 -33 3.5 -49t14.5 -27q14 -14 42 -14h4q28 0 42 14q11 11 14.5 27t3.5 49v78q0 33 -3.5 49t-14.5 27q-14 14 -42 14h-4q-28 0 -42 -14q-11 -11 -14.5 -27t-3.5 -49v-78zM481 213q0 -38 -4 -67t-12 -50.5t-19.5 -37.5t-27.5 -28q-22 -17 -61 -28t-93 -11 h-12q-54 0 -93 11t-61 28q-16 12 -27.5 28t-19.5 37.5t-12 50.5t-4 67v64q0 38 4 67t12 50.5t19.5 37.5t27.5 28q22 17 61 28t93 11h12q54 0 93 -11t61 -28q16 -12 27.5 -28t19.5 -37.5t12 -50t4 -66.5v-65zM260 638q41 0 68 59q5 11 15 11q5 0 13 -3l49 -19q13 -4 13 -16 q0 -8 -3.5 -15.5t-5.5 -12.5q-22 -46 -58 -73.5t-90 -27.5h-6q-54 0 -90 27.5t-58 73.5q-2 5 -5.5 12.5t-3.5 15.5q0 12 13 16l49 19q7 3 13 3q10 0 15 -11q27 -59 68 -59h4z" />
<glyph unicode="&#x150;" horiz-adv-x="636" d="M46 0zM419 342q0 56 -5 94t-23 56q-12 12 -27.5 18t-38.5 6h-14q-23 0 -38.5 -6t-27.5 -18q-18 -18 -23 -56t-5 -94v-37q0 -56 5 -94t23 -56q12 -12 27.5 -18t38.5 -6h14q23 0 38.5 6t27.5 18q18 18 23 56t5 94v37zM590 285q0 -87 -18.5 -148.5t-65.5 -98.5 q-29 -23 -74 -35t-110 -12h-8q-65 0 -110 12t-74 35q-47 37 -65.5 98.5t-18.5 148.5v77q0 87 18.5 148.5t65.5 98.5q29 23 74 35t110 12h8q65 0 110 -12t74 -35q47 -37 65.5 -98.5t18.5 -148.5v-77zM267 921q5 5 9.5 6t9.5 1q10 0 17 -11l47 -63q11 -14 10 -22q0 -7 -14 -17 l-157 -107q-6 -4 -10 -6t-9 -2q-10 2 -17 11l-37 43q-5 7 -6.5 11.5t-1.5 7.5q-1 5 2 8.5t11 10.5zM527 921q5 5 9.5 6t9.5 1q10 0 17 -11l47 -63q11 -14 10 -22q0 -7 -14 -17l-157 -107q-6 -4 -10 -6t-9 -2q-10 2 -17 11l-37 43q-5 7 -6.5 11.5t-1.5 7.5q-1 5 2 8.5 t11 10.5z" />
<glyph unicode="&#x151;" horiz-adv-x="516" d="M35 0zM196 206q0 -33 3.5 -49t14.5 -27q14 -14 42 -14h4q28 0 42 14q11 11 14.5 27t3.5 49v78q0 33 -3.5 49t-14.5 27q-14 14 -42 14h-4q-28 0 -42 -14q-11 -11 -14.5 -27t-3.5 -49v-78zM481 213q0 -38 -4 -67t-12 -50.5t-19.5 -37.5t-27.5 -28q-22 -17 -61 -28t-93 -11 h-12q-54 0 -93 11t-61 28q-16 12 -27.5 28t-19.5 37.5t-12 50.5t-4 67v64q0 38 4 67t12 50.5t19.5 37.5t27.5 28q22 17 61 28t93 11h12q54 0 93 -11t61 -28q16 -12 27.5 -28t19.5 -37.5t12 -50t4 -66.5v-65zM213 768q8 8 18 8q9 1 18 -9l52 -59q12 -12 12 -21 q0 -5 -2.5 -8.5t-10.5 -9.5l-147 -121q-5 -4 -9 -6.5t-9 -2.5q-9 0 -18 9l-40 40q-6 6 -8 10.5t-2 7.5q-1 7 11 20zM444 768q8 8 18 8q9 1 18 -9l52 -59q12 -12 12 -21q0 -5 -2.5 -8.5t-10.5 -9.5l-147 -121q-5 -4 -9 -6.5t-9 -2.5q-9 0 -18 9l-40 40q-6 6 -8 10.5t-2 7.5 q-1 7 11 20z" />
<glyph unicode="&#x152;" horiz-adv-x="894" d="M577 266q0 -31 1.5 -60t4.5 -52q1 -8 6.5 -13t15.5 -5h213q23 0 28.5 -5.5t5.5 -25.5v-74q0 -18 -5.5 -24.5t-28.5 -6.5h-241q-48 0 -79 9.5t-49 32.5q-25 -26 -64 -38.5t-79 -12.5h-10q-57 0 -97 12t-69 35q-47 37 -65.5 98.5t-18.5 148.5v77q0 87 18 149.5t66 97.5 q32 24 72 35.5t94 11.5h10q44 0 82.5 -13t67.5 -37q17 26 48 33.5t76 7.5h239q24 0 28.5 -5.5t4.5 -25.5v-75q0 -18 -4.5 -24t-28.5 -6h-212q-14 0 -19 -4.5t-6 -15.5q-1 -15 -2 -44t-1 -55h211q19 0 25.5 -5.5t6.5 -23.5v-70q0 -16 -6.5 -21.5t-25.5 -5.5h-213zM419 359 q0 26 0.5 59t2.5 67q-19 14 -45 22.5t-56 8.5h-10q-23 0 -38.5 -6t-27.5 -18q-18 -18 -23 -56t-5 -94v-37q0 -56 5 -94t23 -56q12 -12 27.5 -18t42.5 -6h10q26 0 53 8.5t44 21.5q-3 67 -3 137v61z" />
<glyph unicode="&#x153;" horiz-adv-x="784" d="M585 120q24 0 55.5 4t50.5 9q4 1 9 2t10 1q15 0 18 -17l8 -50q2 -8 3 -15t1 -12q0 -10 -5 -16t-21 -11q-30 -11 -69.5 -17.5t-76.5 -6.5h-15q-54 0 -93 14.5t-59 34.5q-21 -21 -59 -35t-83 -14h-12q-54 0 -90.5 11t-58.5 28q-16 12 -27.5 28t-19.5 37.5t-12 50.5t-4 67 v64q0 38 4 67t12 50.5t19.5 37.5t27.5 28q22 17 58.5 28t90.5 11h12q92 0 143 -48q27 24 64 36t76 12h14q54 0 90 -13.5t56 -36.5q26 -29 37 -71.5t11 -107.5v-52q0 -16 -7 -22t-22 -6h-240v-8q0 -35 20 -48.5t73 -13.5h11zM196 206q0 -33 3.5 -49t14.5 -27q14 -14 42 -14h4 q28 0 42 14q11 11 14 25t4 41v18v70q0 33 -3.5 49t-14.5 27q-14 14 -42 14h-4q-28 0 -42 -14q-11 -11 -14.5 -27t-3.5 -49v-78zM591 294q12 0 12 13v16q0 30 -10 46q-12 18 -46 18h-9q-29 0 -42 -14q-15 -17 -15 -54v-25h110z" />
<glyph unicode="&#x154;" horiz-adv-x="591" d="M64 0zM232 31q0 -21 -6 -26t-29 -5h-99q-23 0 -28.5 5t-5.5 26v578q0 21 8 29.5t26 10.5q28 3 71 5t95 2h21q78 0 130 -13.5t84 -44.5q23 -23 35.5 -55.5t12.5 -80.5v-21q0 -51 -10 -86t-33 -61q-29 -32 -76 -47l127 -214q8 -14 3 -23.5t-27 -9.5h-98q-26 0 -36 5.5 t-18 22.5l-100 192q-3 6 -6.5 8.5t-11.5 2.5h-29v-200zM276 520h-15t-13 -1q-8 -1 -12 -4.5t-4 -13.5v-137h65q26 0 40.5 3.5t23.5 12.5q17 17 17 59v13q0 18 -3.5 30t-11.5 20q-17 18 -68 18h-19zM359 894q11 7 19 7q7 0 11.5 -5t7.5 -10l38 -62q7 -11 7 -21q0 -14 -19 -24 l-169 -89q-10 -5 -21 -5q-6 0 -10.5 4t-11.5 13l-26 38q-8 12 -8 21q0 11 11 18z" />
<glyph unicode="&#x155;" horiz-adv-x="369" d="M51 0zM180 436q18 29 44 41.5t68 12.5h40q16 0 22.5 -5.5t6.5 -22.5v-73q0 -17 -6 -22.5t-21 -5.5h-30q-55 0 -76 -21q-10 -10 -13.5 -27t-3.5 -42v-242q0 -14 -7 -21.5t-27 -7.5h-92q-20 0 -27 7.5t-7 21.5v433q0 15 7 21.5t27 6.5h48q17 0 24.5 -4.5t11.5 -18.5l8 -31 h3zM269 756q10 9 19 9q11 0 20 -13l48 -62q6 -8 6 -17q0 -8 -4 -13t-12 -11l-158 -108q-11 -7 -20 -7q-8 0 -12 3t-12 11l-30 35q-11 14 -11 23q0 10 9 16z" />
<glyph unicode="&#x156;" horiz-adv-x="591" d="M64 0zM232 31q0 -21 -6 -26t-29 -5h-99q-23 0 -28.5 5t-5.5 26v578q0 21 8 29.5t26 10.5q28 3 71 5t95 2h21q78 0 130 -13.5t84 -44.5q23 -23 35.5 -55.5t12.5 -80.5v-21q0 -51 -10 -86t-33 -61q-29 -32 -76 -47l127 -214q8 -14 3 -23.5t-27 -9.5h-98q-26 0 -36 5.5 t-18 22.5l-100 192q-3 6 -6.5 8.5t-11.5 2.5h-29v-200zM276 520h-15t-13 -1q-8 -1 -12 -4.5t-4 -13.5v-137h65q26 0 40.5 3.5t23.5 12.5q17 17 17 59v13q0 18 -3.5 30t-11.5 20q-17 18 -68 18h-19zM311 -56q30 0 43 -15t13 -47v-18q0 -43 -20 -82.5t-56 -72.5 q-10 -10 -18 -10q-7 0 -19 11l-25 23q-6 6 -6 12q0 5 3.5 9t9.5 11t11 13t9 11q5 6 8.5 11t3.5 10q0 3 -4 6q-15 8 -23 19t-8 33v21q0 26 14.5 40.5t42.5 14.5h21z" />
<glyph unicode="&#x157;" horiz-adv-x="369" d="M51 0zM180 436q18 29 44 41.5t68 12.5h40q16 0 22.5 -5.5t6.5 -22.5v-73q0 -17 -6 -22.5t-21 -5.5h-30q-55 0 -76 -21q-10 -10 -13.5 -27t-3.5 -42v-242q0 -14 -7 -21.5t-27 -7.5h-92q-20 0 -27 7.5t-7 21.5v433q0 15 7 21.5t27 6.5h48q17 0 24.5 -4.5t11.5 -18.5l8 -31 h3zM142 -56q30 0 43 -15t13 -47v-18q0 -43 -20 -82.5t-56 -72.5q-10 -10 -18 -10q-7 0 -19 11l-25 23q-6 6 -6 12q0 5 3.5 9t9.5 11t11 13t9 11q5 6 8.5 11t3.5 10q0 3 -4 6q-15 8 -23 19t-8 33v21q0 26 14.5 40.5t42.5 14.5h21z" />
<glyph unicode="&#x158;" horiz-adv-x="591" d="M64 0zM232 31q0 -21 -6 -26t-29 -5h-99q-23 0 -28.5 5t-5.5 26v578q0 21 8 29.5t26 10.5q28 3 71 5t95 2h21q78 0 130 -13.5t84 -44.5q23 -23 35.5 -55.5t12.5 -80.5v-21q0 -51 -10 -86t-33 -61q-29 -32 -76 -47l127 -214q8 -14 3 -23.5t-27 -9.5h-98q-26 0 -36 5.5 t-18 22.5l-100 192q-3 6 -6.5 8.5t-11.5 2.5h-29v-200zM276 520h-15t-13 -1q-8 -1 -12 -4.5t-4 -13.5v-137h65q26 0 40.5 3.5t23.5 12.5q17 17 17 59v13q0 18 -3.5 30t-11.5 20q-17 18 -68 18h-19zM288 802h5l66 71q10 11 22 11q10 0 21 -9l36 -30q7 -7 7 -13q0 -9 -8 -17 l-88 -102q-8 -8 -14.5 -10.5t-13.5 -2.5h-61q-7 0 -13.5 2.5t-14.5 10.5l-88 102q-8 8 -8 17q0 6 7 13l36 30q10 9 21 9q12 0 22 -11z" />
<glyph unicode="&#x159;" horiz-adv-x="369" d="M49 0zM180 436q18 29 44 41.5t68 12.5h40q16 0 22.5 -5.5t6.5 -22.5v-73q0 -17 -6 -22.5t-21 -5.5h-30q-55 0 -76 -21q-10 -10 -13.5 -27t-3.5 -42v-242q0 -14 -7 -21.5t-27 -7.5h-92q-20 0 -27 7.5t-7 21.5v433q0 15 7 21.5t27 6.5h48q17 0 24.5 -4.5t11.5 -18.5l8 -31 h3zM201 637h5l66 71q10 11 22 11q10 0 21 -9l36 -30q7 -7 7 -13q0 -9 -8 -17l-88 -102q-7 -9 -14 -11t-14 -2h-61q-7 0 -14 2t-14 11l-88 102q-8 8 -8 17q0 6 7 13l36 30q10 9 21 9q12 0 22 -11z" />
<glyph unicode="&#x15a;" horiz-adv-x="542" d="M42 0zM255 -9q-21 0 -46 2t-50 6t-47.5 9t-39.5 11q-20 7 -25 16.5t-3 23.5l13 81q4 31 35 20q43 -15 85.5 -23t74.5 -8h5q47 0 65.5 13t18.5 44v10q0 31 -17.5 42t-61.5 19l-68 13q-44 8 -73 23t-46.5 37t-25 51t-7.5 65v28q0 84 45 128q29 28 76.5 41t122.5 13h7 q45 0 92.5 -7.5t77.5 -18.5q16 -6 20 -15.5t-1 -29.5l-17 -73q-6 -27 -37 -17q-34 11 -66 16t-66 5h-4q-50 0 -68.5 -11.5t-18.5 -38.5v-9q0 -24 13.5 -34t51.5 -18l76 -15q43 -9 73.5 -21t49 -32t27 -50.5t8.5 -76.5v-24q0 -99 -55 -147t-182 -48h-12zM359 894q11 7 19 7 q7 0 11.5 -5t7.5 -10l38 -62q7 -11 7 -21q0 -14 -19 -24l-169 -89q-10 -5 -21 -5q-6 0 -10.5 4t-11.5 13l-26 38q-8 12 -8 21q0 11 11 18z" />
<glyph unicode="&#x15b;" horiz-adv-x="453" d="M28 0zM38 342q0 74 39 112q46 45 152 45h10q17 0 37 -1.5t40 -4t38 -5.5t31 -7t16 -9.5t1 -16.5l-11 -82q-3 -19 -27 -13q-26 6 -53 10t-53 4h-1q-33 0 -46 -6t-13 -21v-3q0 -14 12 -20.5t45 -13.5l47 -10q32 -7 54.5 -17.5t37 -26.5t21 -39t6.5 -54v-15 q0 -78 -47.5 -117.5t-148.5 -39.5h-10q-21 0 -43.5 2t-45 5.5t-43 8.5t-35.5 11q-14 5 -17 12t0 23l14 66q5 29 34 19q25 -8 59.5 -15.5t60.5 -7.5h3q34 0 46.5 7t12.5 23v3q0 13 -10.5 19.5t-48.5 14.5l-44 10q-64 14 -92 44t-28 93v13zM288 756q10 9 19 9q11 0 20 -13 l48 -62q6 -8 6 -17q0 -8 -4 -13t-12 -11l-158 -108q-11 -7 -20 -7q-8 0 -12 3t-12 11l-30 35q-11 14 -11 23q0 10 9 16z" />
<glyph unicode="&#x15c;" horiz-adv-x="542" d="M42 0zM255 -9q-21 0 -46 2t-50 6t-47.5 9t-39.5 11q-20 7 -25 16.5t-3 23.5l13 81q4 31 35 20q43 -15 85.5 -23t74.5 -8h5q47 0 65.5 13t18.5 44v10q0 31 -17.5 42t-61.5 19l-68 13q-44 8 -73 23t-46.5 37t-25 51t-7.5 65v28q0 84 45 128q29 28 76.5 41t122.5 13h7 q45 0 92.5 -7.5t77.5 -18.5q16 -6 20 -15.5t-1 -29.5l-17 -73q-6 -27 -37 -17q-34 11 -66 16t-66 5h-4q-50 0 -68.5 -11.5t-18.5 -38.5v-9q0 -24 13.5 -34t51.5 -18l76 -15q43 -9 73.5 -21t49 -32t27 -50.5t8.5 -76.5v-24q0 -99 -55 -147t-182 -48h-12zM211 704 q-10 -11 -22 -11q-11 0 -21 9l-36 30q-7 7 -7 13q0 9 8 17l88 102q8 8 14 10.5t14 2.5h61q8 0 14 -2.5t14 -10.5l88 -102q8 -8 8 -17q0 -6 -7 -13l-36 -30q-11 -9 -21 -9q-12 0 -22 11l-66 71h-5z" />
<glyph unicode="&#x15d;" horiz-adv-x="453" d="M28 0zM38 342q0 74 39 112q46 45 152 45h10q17 0 37 -1.5t40 -4t38 -5.5t31 -7t16 -9.5t1 -16.5l-11 -82q-3 -19 -27 -13q-26 6 -53 10t-53 4h-1q-33 0 -46 -6t-13 -21v-3q0 -14 12 -20.5t45 -13.5l47 -10q32 -7 54.5 -17.5t37 -26.5t21 -39t6.5 -54v-15 q0 -78 -47.5 -117.5t-148.5 -39.5h-10q-21 0 -43.5 2t-45 5.5t-43 8.5t-35.5 11q-14 5 -17 12t0 23l14 66q5 29 34 19q25 -8 59.5 -15.5t60.5 -7.5h3q34 0 46.5 7t12.5 23v3q0 13 -10.5 19.5t-48.5 14.5l-44 10q-64 14 -92 44t-28 93v13zM163 539q-10 -11 -22 -11 q-11 0 -21 9l-36 30q-7 7 -7 13q0 9 8 17l88 102q8 8 14 10.5t14 2.5h61q8 0 14 -2.5t14 -10.5l88 -102q8 -8 8 -17q0 -6 -7 -13l-36 -30q-11 -9 -21 -9q-12 0 -22 11l-66 71h-5z" />
<glyph unicode="&#x15e;" horiz-adv-x="542" d="M294 -53q15 3 35 3h2q35 0 58.5 -21t23.5 -66v-3q0 -57 -30 -80t-87 -23h-5q-25 0 -52 4t-44 9q-10 4 -14 7.5t-4 11.5q0 3 0.5 8t1.5 10l4 25q3 15 13 15q3 0 9 -2q11 -4 29.5 -7t37.5 -3h3q29 0 29 20v2q0 9 -7 15t-22 6h-3q-8 0 -17 -1t-18 -3q-14 -3 -21 6l-11 14 q-8 11 -8 15q0 6 4 19l18 64v1q-37 3 -77 10.5t-69 16.5q-20 6 -25.5 14.5t-3.5 24.5l13 81q6 31 33 22q16 -6 37 -12t42 -10.5t41 -7.5t36 -3h12q45 0 64 9t19 42v16q0 16 -4.5 26t-14 16.5t-24.5 10.5t-36 8l-68 13q-86 16 -119 60.5t-33 116.5v32q0 91 57.5 134t184.5 43 h12q21 0 44.5 -2.5t47 -6t44 -8.5t35.5 -10q17 -6 17 -21q0 -9 -6 -36l-14 -64q-5 -24 -36 -14q-30 10 -64 16t-59 6h-11q-49 0 -69 -10.5t-20 -37.5v-11q0 -25 13 -34.5t52 -17.5l76 -15q45 -8 75 -20t48.5 -32.5t26.5 -51t8 -76.5v-25q0 -92 -47 -139t-152 -54l-3 -13z " />
<glyph unicode="&#x15f;" horiz-adv-x="453" d="M38 342q0 74 39 112q46 45 152 45h10q17 0 37 -1.5t40 -4t38 -5.5t31 -7t16 -9.5t1 -16.5l-11 -82q-3 -19 -27 -13q-26 6 -53 10t-53 4h-1q-33 0 -46 -6t-13 -21v-3q0 -14 12 -20.5t45 -13.5l47 -10q32 -7 54.5 -17.5t37 -26.5t21 -39t6.5 -54v-15q0 -73 -41 -112 t-127 -44l-3 -13l-8 -32q15 3 35 3h2q35 0 58.5 -21t23.5 -66v-3q0 -52 -30 -77.5t-87 -25.5h-5q-25 0 -52 4t-44 9q-10 4 -14 7.5t-4 11.5q0 3 0.5 8t1.5 10l4 25q3 15 13 15q3 0 9 -2q11 -4 29.5 -7t37.5 -3h3q29 0 29 20v2q0 9 -7 15t-22 6h-3q-8 0 -17 -1t-18 -3 q-14 -3 -21 6l-11 14q-8 11 -8 15q0 6 4 19l18 64v2q-33 3 -64.5 9t-54.5 15q-14 5 -17 12t0 23l14 66q5 29 34 19q25 -8 59.5 -15.5t60.5 -7.5h3q34 0 46.5 7t12.5 23v3q0 13 -10.5 19.5t-48.5 14.5l-44 10q-64 14 -92 44t-28 93v13z" />
<glyph unicode="&#x160;" horiz-adv-x="542" d="M42 0zM255 -9q-21 0 -46 2t-50 6t-47.5 9t-39.5 11q-20 7 -25 16.5t-3 23.5l13 81q4 31 35 20q43 -15 85.5 -23t74.5 -8h5q47 0 65.5 13t18.5 44v10q0 31 -17.5 42t-61.5 19l-68 13q-44 8 -73 23t-46.5 37t-25 51t-7.5 65v28q0 84 45 128q29 28 76.5 41t122.5 13h7 q45 0 92.5 -7.5t77.5 -18.5q16 -6 20 -15.5t-1 -29.5l-17 -73q-6 -27 -37 -17q-34 11 -66 16t-66 5h-4q-50 0 -68.5 -11.5t-18.5 -38.5v-9q0 -24 13.5 -34t51.5 -18l76 -15q43 -9 73.5 -21t49 -32t27 -50.5t8.5 -76.5v-24q0 -99 -55 -147t-182 -48h-12zM271 802h5l66 71 q10 11 22 11q10 0 21 -9l36 -30q7 -7 7 -13q0 -9 -8 -17l-88 -102q-8 -8 -14.5 -10.5t-13.5 -2.5h-61q-7 0 -13.5 2.5t-14.5 10.5l-88 102q-8 8 -8 17q0 6 7 13l36 30q10 9 21 9q12 0 22 -11z" />
<glyph unicode="&#x161;" horiz-adv-x="453" d="M28 0zM38 342q0 74 39 112q46 45 152 45h10q17 0 37 -1.5t40 -4t38 -5.5t31 -7t16 -9.5t1 -16.5l-11 -82q-3 -19 -27 -13q-26 6 -53 10t-53 4h-1q-33 0 -46 -6t-13 -21v-3q0 -14 12 -20.5t45 -13.5l47 -10q32 -7 54.5 -17.5t37 -26.5t21 -39t6.5 -54v-15 q0 -78 -47.5 -117.5t-148.5 -39.5h-10q-21 0 -43.5 2t-45 5.5t-43 8.5t-35.5 11q-14 5 -17 12t0 23l14 66q5 29 34 19q25 -8 59.5 -15.5t60.5 -7.5h3q34 0 46.5 7t12.5 23v3q0 13 -10.5 19.5t-48.5 14.5l-44 10q-64 14 -92 44t-28 93v13zM224 637h5l66 71q10 11 22 11 q10 0 21 -9l36 -30q7 -7 7 -13q0 -9 -8 -17l-88 -102q-7 -9 -14 -11t-14 -2h-61q-7 0 -14 2t-14 11l-88 102q-8 8 -8 17q0 6 7 13l36 30q10 9 21 9q12 0 22 -11z" />
<glyph unicode="&#x162;" horiz-adv-x="523" d="M14 0zM46 511q-20 0 -26 6t-6 24v75q0 20 6 25.5t26 5.5h431q20 0 26 -5.5t6 -25.5v-75q0 -18 -6 -24t-26 -6h-131v-479q0 -19 -7 -25.5t-30 -6.5h-95q-23 0 -30 6.5t-7 25.5v479h-131zM277 -56q30 0 43 -15t13 -47v-18q0 -43 -20 -82.5t-56 -72.5q-10 -10 -18 -10 q-7 0 -19 11l-25 23q-6 6 -6 12q0 5 3.5 9t9.5 11t11 13t9 11q5 6 8.5 11t3.5 10q0 3 -4 6q-15 8 -23 19t-8 33v21q0 26 14.5 40.5t42.5 14.5h21z" />
<glyph unicode="&#x163;" horiz-adv-x="389" d="M2 0zM364 37q0 -22 -6 -29.5t-26 -7.5h-80q-60 0 -91.5 8.5t-50.5 28.5q-16 17 -22.5 45t-6.5 76v207h-54q-14 0 -19.5 5.5t-5.5 19.5v51q0 19 5 24.5t21 9.5l53 13v98q0 14 7 21.5t27 7.5h92q20 0 27 -7.5t7 -21.5v-96h83q14 0 20 -5t6 -24v-67q0 -19 -6 -24t-20 -5h-83 v-189q0 -13 1.5 -21t6.5 -14q5 -5 13.5 -7.5t25.5 -2.5h44q20 0 26 -7.5t6 -29.5v-57zM244 -56q30 0 43 -15t13 -47v-18q0 -43 -20 -82.5t-56 -72.5q-10 -10 -18 -10q-7 0 -19 11l-25 23q-6 6 -6 12q0 5 3.5 9t9.5 11t11 13t9 11q5 6 8.5 11t3.5 10q0 3 -4 6q-15 8 -23 19 t-8 33v21q0 26 14.5 40.5t42.5 14.5h21z" />
<glyph unicode="&#x164;" horiz-adv-x="523" d="M14 0zM46 511q-20 0 -26 6t-6 24v75q0 20 6 25.5t26 5.5h431q20 0 26 -5.5t6 -25.5v-75q0 -18 -6 -24t-26 -6h-131v-479q0 -19 -7 -25.5t-30 -6.5h-95q-23 0 -30 6.5t-7 25.5v479h-131zM258 802h5l66 71q10 11 22 11q10 0 21 -9l36 -30q7 -7 7 -13q0 -9 -8 -17l-88 -102 q-8 -8 -14.5 -10.5t-13.5 -2.5h-61q-7 0 -13.5 2.5t-14.5 10.5l-88 102q-8 8 -8 17q0 6 7 13l36 30q10 9 21 9q12 0 22 -11z" />
<glyph unicode="&#x165;" horiz-adv-x="389" d="M2 0zM364 37q0 -22 -6 -29.5t-26 -7.5h-80q-60 0 -91.5 8.5t-50.5 28.5q-16 17 -22.5 45t-6.5 76v207h-54q-14 0 -19.5 5.5t-5.5 19.5v51q0 19 5 24.5t21 9.5l53 13v98q0 14 7 21.5t27 7.5h92q20 0 27 -7.5t7 -21.5v-96h83q14 0 20 -5t6 -24v-67q0 -19 -6 -24t-20 -5h-83 v-189q0 -13 1.5 -21t6.5 -14q5 -5 13.5 -7.5t25.5 -2.5h44q20 0 26 -7.5t6 -29.5v-57zM368 760q30 0 43 -15t13 -47v-18q0 -43 -20 -82.5t-56 -72.5q-10 -10 -18 -10q-7 0 -19 11l-25 23q-6 6 -6 12q0 5 3.5 9t9.5 11t11 13t9 11q5 6 8.5 11t3.5 10q0 3 -4 6q-15 8 -23 19 t-8 33v21q0 26 14.5 40.5t42.5 14.5h21z" />
<glyph unicode="&#x166;" horiz-adv-x="524" d="M346 346h92q14 0 19.5 -7t5.5 -21v-54q0 -16 -5.5 -22t-19.5 -6h-92v-204q0 -19 -7 -25.5t-30 -6.5h-95q-23 0 -30 6.5t-7 25.5v204h-92q-14 0 -19.5 6t-5.5 22v54q0 14 5.5 21t19.5 7h92v163h-131q-19 0 -25.5 6t-6.5 24v76q0 17 6.5 24.5t25.5 7.5h432q20 0 26 -5.5 t6 -25.5v-77q0 -18 -6 -24t-26 -6h-132v-163z" />
<glyph unicode="&#x167;" horiz-adv-x="389" d="M364 37q0 -22 -6 -29.5t-26 -7.5h-80q-60 0 -91.5 8.5t-50.5 28.5q-16 17 -22.5 45t-6.5 76v28h-54q-15 0 -20 4.5t-5 20.5v49q0 19 4.5 25t21.5 11l53 13v56h-54q-15 0 -20 4.5t-5 20.5v49q0 19 4.5 25t21.5 11l53 13v98q0 14 7 21.5t27 7.5h92q20 0 27 -7.5t7 -21.5 v-96h83q14 0 20 -5t6 -24v-67q0 -19 -6 -24t-20 -5h-83v-54h83q14 0 20 -5t6 -24v-67q0 -19 -6 -24t-20 -5h-83v-10q0 -13 1.5 -21t6.5 -14q5 -5 13.5 -7.5t25.5 -2.5h44q20 0 26 -7.5t6 -29.5v-57z" />
<glyph unicode="&#x168;" horiz-adv-x="630" d="M54 0zM408 616q0 21 5.5 26t29.5 5h98q24 0 29.5 -5t5.5 -26v-390q0 -66 -13.5 -107t-47.5 -73q-61 -55 -194 -55h-12q-70 0 -117.5 14t-77.5 41q-34 32 -47 76t-13 104v390q0 21 5.5 26t29.5 5h98q24 0 30 -5t6 -26v-385q0 -30 4.5 -49.5t15.5 -30.5q20 -20 70 -20h5 q50 0 70 20q11 11 15.5 30.5t4.5 49.5v385zM149 727q-8 5 -8 12q0 6 3 14q20 48 50 71.5t62 23.5q20 0 34.5 -5.5t28.5 -14.5l19 -12q23 -14 35 -14t22 7.5t21 24.5q5 8 13 8q5 0 13 -5l38 -26q9 -8 9 -14t-4 -13.5t-8 -12.5q-46 -69 -107 -69q-30 0 -56 16l-20 13 q-20 13 -34 13q-9 0 -18.5 -6.5t-23.5 -28.5q-6 -9 -14 -9q-5 0 -12 3z" />
<glyph unicode="&#x169;" horiz-adv-x="518" d="M44 0zM314 461q0 14 7 21.5t27 7.5h92q20 0 27 -7.5t7 -21.5v-296q0 -48 -11 -79.5t-34 -52.5q-27 -24 -68.5 -33t-101.5 -9t-101.5 9t-68.5 33q-23 21 -34 52.5t-11 79.5v296q0 14 7 21.5t27 7.5h92q20 0 27 -7.5t7 -21.5v-282q0 -34 11 -46q12 -13 44 -13t44 13 q11 12 11 46v282zM94 566q-8 5 -8 12q0 6 3 14q20 48 50 71.5t62 23.5q20 0 34.5 -5.5t28.5 -14.5l19 -12q23 -14 35 -14t22 7.5t21 24.5q5 8 13 8q5 0 13 -5l38 -26q9 -8 9 -14t-4 -13.5t-8 -12.5q-46 -69 -107 -69q-30 0 -56 16l-20 13q-20 13 -34 13q-9 0 -18.5 -6.5 t-23.5 -28.5q-6 -9 -14 -9q-5 0 -12 3z" />
<glyph unicode="&#x16a;" horiz-adv-x="630" d="M54 0zM408 616q0 21 5.5 26t29.5 5h98q24 0 29.5 -5t5.5 -26v-390q0 -66 -13.5 -107t-47.5 -73q-61 -55 -194 -55h-12q-70 0 -117.5 14t-77.5 41q-34 32 -47 76t-13 104v390q0 21 5.5 26t29.5 5h98q24 0 30 -5t6 -26v-385q0 -30 4.5 -49.5t15.5 -30.5q20 -20 70 -20h5 q50 0 70 20q11 11 15.5 30.5t4.5 49.5v385zM207 727q-15 0 -21 5.5t-6 18.5v50q0 13 6 18.5t21 5.5h216q15 0 21 -5.5t6 -18.5v-50q0 -13 -6 -18.5t-21 -5.5h-216z" />
<glyph unicode="&#x16b;" horiz-adv-x="518" d="M44 0zM314 461q0 14 7 21.5t27 7.5h92q20 0 27 -7.5t7 -21.5v-296q0 -48 -11 -79.5t-34 -52.5q-27 -24 -68.5 -33t-101.5 -9t-101.5 9t-68.5 33q-23 21 -34 52.5t-11 79.5v296q0 14 7 21.5t27 7.5h92q20 0 27 -7.5t7 -21.5v-282q0 -34 11 -46q12 -13 44 -13t44 13 q11 12 11 46v282zM150 571q-26 0 -26 24v49q0 25 26 25h218q26 0 26 -25v-49q0 -24 -26 -24h-218z" />
<glyph unicode="&#x16c;" horiz-adv-x="630" d="M54 0zM408 616q0 21 5.5 26t29.5 5h98q24 0 29.5 -5t5.5 -26v-390q0 -66 -13.5 -107t-47.5 -73q-61 -55 -194 -55h-12q-70 0 -117.5 14t-77.5 41q-34 32 -47 76t-13 104v390q0 21 5.5 26t29.5 5h98q24 0 30 -5t6 -26v-385q0 -30 4.5 -49.5t15.5 -30.5q20 -20 70 -20h5 q50 0 70 20q11 11 15.5 30.5t4.5 49.5v385zM317 801q41 0 68 59q5 11 15 11q5 0 13 -3l49 -19q13 -4 13 -16q0 -8 -3.5 -15.5t-5.5 -12.5q-22 -46 -58 -73.5t-90 -27.5h-6q-54 0 -90 27.5t-58 73.5q-2 5 -5.5 12.5t-3.5 15.5q0 12 13 16l49 19q7 3 13 3q10 0 15 -11 q27 -59 68 -59h4z" />
<glyph unicode="&#x16d;" horiz-adv-x="518" d="M44 0zM314 461q0 14 7 21.5t27 7.5h92q20 0 27 -7.5t7 -21.5v-296q0 -48 -11 -79.5t-34 -52.5q-27 -24 -68.5 -33t-101.5 -9t-101.5 9t-68.5 33q-23 21 -34 52.5t-11 79.5v296q0 14 7 21.5t27 7.5h92q20 0 27 -7.5t7 -21.5v-282q0 -34 11 -46q12 -13 44 -13t44 13 q11 12 11 46v282zM262 638q41 0 68 59q5 11 15 11q5 0 13 -3l49 -19q13 -4 13 -16q0 -8 -3.5 -15.5t-5.5 -12.5q-22 -46 -58 -73.5t-90 -27.5h-6q-54 0 -90 27.5t-58 73.5q-2 5 -5.5 12.5t-3.5 15.5q0 12 13 16l49 19q7 3 13 3q10 0 15 -11q27 -59 68 -59h4z" />
<glyph unicode="&#x16e;" horiz-adv-x="630" d="M54 0zM408 616q0 21 5.5 26t29.5 5h98q24 0 29.5 -5t5.5 -26v-390q0 -66 -13.5 -107t-47.5 -73q-61 -55 -194 -55h-12q-70 0 -117.5 14t-77.5 41q-34 32 -47 76t-13 104v390q0 21 5.5 26t29.5 5h98q24 0 30 -5t6 -26v-385q0 -30 4.5 -49.5t15.5 -30.5q20 -20 70 -20h5 q50 0 70 20q11 11 15.5 30.5t4.5 49.5v385zM213 781q0 22 8 41t22 32.5t32.5 21t39.5 7.5q44 0 73 -28.5t29 -73.5t-29 -73.5t-73 -28.5q-21 0 -39.5 7.5t-32.5 21t-22 32.5t-8 41zM286 781q0 -14 9 -21.5t20 -7.5t20 7.5t9 21.5t-9 21.5t-20 7.5t-20 -7.5t-9 -21.5z" />
<glyph unicode="&#x16f;" horiz-adv-x="518" d="M44 0zM314 461q0 14 7 21.5t27 7.5h92q20 0 27 -7.5t7 -21.5v-296q0 -48 -11 -79.5t-34 -52.5q-27 -24 -68.5 -33t-101.5 -9t-101.5 9t-68.5 33q-23 21 -34 52.5t-11 79.5v296q0 14 7 21.5t27 7.5h92q20 0 27 -7.5t7 -21.5v-282q0 -34 11 -46q12 -13 44 -13t44 13 q11 12 11 46v282zM157 628q0 22 8 41t22 32.5t32.5 21t39.5 7.5q44 0 73 -28.5t29 -73.5t-29 -73.5t-73 -28.5q-21 0 -39.5 7.5t-32.5 21t-22 32.5t-8 41zM230 628q0 -14 9 -21.5t20 -7.5t20 7.5t9 21.5t-9 21.5t-20 7.5t-20 -7.5t-9 -21.5z" />
<glyph unicode="&#x170;" horiz-adv-x="630" d="M54 0zM408 616q0 21 5.5 26t29.5 5h98q24 0 29.5 -5t5.5 -26v-390q0 -66 -13.5 -107t-47.5 -73q-61 -55 -194 -55h-12q-70 0 -117.5 14t-77.5 41q-34 32 -47 76t-13 104v390q0 21 5.5 26t29.5 5h98q24 0 30 -5t6 -26v-385q0 -30 4.5 -49.5t15.5 -30.5q20 -20 70 -20h5 q50 0 70 20q11 11 15.5 30.5t4.5 49.5v385zM218 921q5 5 9.5 6t9.5 1q10 0 17 -11l47 -63q11 -14 10 -22q0 -7 -14 -17l-157 -107q-6 -4 -10 -6t-9 -2q-10 2 -17 11l-37 43q-5 7 -6.5 11.5t-1.5 7.5q-1 5 2 8.5t11 10.5zM478 921q5 5 9.5 6t9.5 1q10 0 17 -11l47 -63 q11 -14 10 -22q0 -7 -14 -17l-157 -107q-6 -4 -10 -6t-9 -2q-10 2 -17 11l-37 43q-5 7 -6.5 11.5t-1.5 7.5q-1 5 2 8.5t11 10.5z" />
<glyph unicode="&#x171;" horiz-adv-x="518" d="M44 0zM314 461q0 14 7 21.5t27 7.5h92q20 0 27 -7.5t7 -21.5v-296q0 -48 -11 -79.5t-34 -52.5q-27 -24 -68.5 -33t-101.5 -9t-101.5 9t-68.5 33q-23 21 -34 52.5t-11 79.5v296q0 14 7 21.5t27 7.5h92q20 0 27 -7.5t7 -21.5v-282q0 -34 11 -46q12 -13 44 -13t44 13 q11 12 11 46v282zM216 768q8 8 18 8q9 1 18 -9l52 -59q12 -12 12 -21q0 -5 -2.5 -8.5t-10.5 -9.5l-147 -121q-5 -4 -9 -6.5t-9 -2.5q-9 0 -18 9l-40 40q-6 6 -8 10.5t-2 7.5q-1 7 11 20zM447 768q8 8 18 8q9 1 18 -9l52 -59q12 -12 12 -21q0 -5 -2.5 -8.5t-10.5 -9.5 l-147 -121q-5 -4 -9 -6.5t-9 -2.5q-9 0 -18 9l-40 40q-6 6 -8 10.5t-2 7.5q-1 7 11 20z" />
<glyph unicode="&#x172;" horiz-adv-x="630" d="M408 616q0 21 5.5 26t29.5 5h98q24 0 29.5 -5t5.5 -26v-390q0 -66 -13.5 -107t-47.5 -73q-22 -20 -47.5 -30t-42.5 -15q-51 -15 -74.5 -42.5t-23.5 -56.5v-4q0 -11 7.5 -18.5t21.5 -7.5h3q10 0 21 2.5t20 5.5q8 2 12 2q3 0 6.5 -2.5t5.5 -10.5l5 -21q5 -20 5 -23 q0 -9 -14 -15q-17 -7 -38 -11t-43 -4h-6q-52 0 -82.5 22t-30.5 64v3q0 27 19.5 58t50.5 49q-65 3 -105.5 16t-68.5 39q-34 32 -48 76t-14 104v390q0 21 5.5 26t29.5 5h98q24 0 30 -5t6 -26v-385q0 -30 4.5 -49.5t15.5 -30.5q20 -20 70 -20h5q50 0 70 20q11 11 15.5 30.5 t4.5 49.5v385z" />
<glyph unicode="&#x173;" horiz-adv-x="518" d="M204 179q0 -34 11 -46q12 -13 44 -13t44 13q11 12 11 46v282q0 14 7 21.5t27 7.5h92q20 0 27 -7.5t7 -21.5v-293q0 -48 -11.5 -79.5t-33.5 -52.5q-12 -11 -28 -19.5t-39 -16.5q-24 -8 -40 -20.5t-26.5 -26t-15 -27t-4.5 -25.5v-3q0 -11 7 -18.5t20 -7.5h3q10 0 22 2.5 t21 5.5q8 2 12 2q3 0 6.5 -2.5t5.5 -10.5l5 -21q5 -20 5 -23q0 -9 -14 -15q-17 -7 -38 -11t-43 -4h-6q-52 0 -80.5 22t-28.5 64v3q0 26 17.5 56.5t51.5 50.5q-54 2 -91 12t-62 33q-22 21 -33.5 52.5t-11.5 79.5v293q0 14 7 21.5t27 7.5h92q20 0 27 -7.5t7 -21.5v-282z" />
<glyph unicode="&#x174;" horiz-adv-x="832" d="M7 0zM413 363q-18 -90 -38.5 -175.5t-38.5 -154.5q-5 -17 -16.5 -25t-40.5 -8h-90q-28 0 -39 7t-16 24q-35 139 -67.5 291t-57.5 299q-2 14 4.5 20t26.5 6h99q18 0 27.5 -4.5t11.5 -21.5q20 -135 36.5 -242t30.5 -199h4q10 50 21.5 104t22.5 106.5t21 101.5t19 90 q3 14 12.5 20t29.5 6h82q20 0 29.5 -6t12.5 -20q9 -41 19 -90t21 -101.5t22 -106.5t22 -104h4q14 92 30 199t37 242q2 17 11.5 21.5t27.5 4.5h99q20 0 26.5 -6t4.5 -20q-26 -147 -58 -299t-67 -291q-5 -17 -16 -24t-39 -7h-90q-29 0 -40.5 8t-16.5 25q-18 69 -38.5 154.5 t-38.5 175.5h-6zM348 704q-10 -11 -22 -11q-11 0 -21 9l-36 30q-7 7 -7 13q0 9 8 17l88 102q8 8 14 10.5t14 2.5h61q8 0 14 -2.5t14 -10.5l88 -102q8 -8 8 -17q0 -6 -7 -13l-36 -30q-11 -9 -21 -9q-12 0 -22 11l-66 71h-5z" />
<glyph unicode="&#x175;" horiz-adv-x="699" d="M4 0zM393 466q21 0 29 -5t11 -25q4 -27 11.5 -63t15 -73t14.5 -71.5t12 -58.5h3q4 25 10.5 61.5t13 77t12.5 81t11 72.5q2 17 7.5 22.5t21.5 5.5h102q18 0 22.5 -7t1.5 -23q-11 -53 -26 -120.5t-30 -130.5t-28.5 -114t-21.5 -71q-6 -16 -13.5 -20t-23.5 -4h-110 q-20 0 -27.5 6t-10.5 17q-7 27 -14.5 61.5t-14 70t-12 69t-8.5 57.5h-4q-3 -24 -9 -57.5t-12.5 -69t-14 -70t-14.5 -61.5q-3 -12 -11 -17.5t-25 -5.5h-108q-17 0 -25 5t-13 17q-8 21 -21.5 72t-29 114.5t-31 131t-25.5 120.5q-4 18 3 24t23 6h98q17 0 23.5 -6t8.5 -22 q5 -33 12 -76.5t14.5 -86t13.5 -78t9 -51.5h4q5 24 11.5 58t13.5 71t13.5 73t10.5 64q3 21 11 25.5t30 4.5h86zM282 539q-10 -11 -22 -11q-11 0 -21 9l-36 30q-7 7 -7 13q0 9 8 17l88 102q8 8 14 10.5t14 2.5h61q8 0 14 -2.5t14 -10.5l88 -102q8 -8 8 -17q0 -6 -7 -13 l-36 -30q-11 -9 -21 -9q-12 0 -22 11l-66 71h-5z" />
<glyph unicode="&#x176;" horiz-adv-x="534" d="M2 0zM215 0q-19 0 -25.5 6.5t-6.5 24.5v160q-22 42 -46 93.5t-47.5 107.5t-43.5 112.5t-35 109.5q-9 33 19 33h105q22 0 30 -2.5t13 -21.5q8 -32 19 -69.5t23 -75.5t24 -74t23 -65h5q11 29 23 65t23.5 74t22 75.5t18.5 69.5q5 19 13 21.5t30 2.5h102q28 0 19 -33 q-15 -53 -35 -109.5t-43 -112t-47 -107t-46 -93.5v-161q0 -18 -6.5 -24.5t-25.5 -6.5h-105zM199 704q-10 -11 -22 -11q-11 0 -21 9l-36 30q-7 7 -7 13q0 9 8 17l88 102q8 8 14 10.5t14 2.5h61q8 0 14 -2.5t14 -10.5l88 -102q8 -8 8 -17q0 -6 -7 -13l-36 -30q-11 -9 -21 -9 q-12 0 -22 11l-66 71h-5z" />
<glyph unicode="&#x177;" horiz-adv-x="482" d="M1 0zM475 460q-10 -67 -29.5 -145.5t-47 -161.5t-63.5 -168t-79 -164q-6 -12 -12.5 -16.5t-15.5 -4.5q-11 0 -29 8l-51 22q-26 12 -26 25q0 7 5 17l16.5 33t17 33.5t15 30.5t9.5 23q-20 8 -35.5 22t-29.5 46t-30.5 83t-32.5 108t-29 113t-21 97q-6 29 30 29h91 q17 0 24.5 -4.5t10.5 -19.5q7 -41 16.5 -85t19.5 -87.5t20.5 -85t21.5 -77.5h5q12 34 24 78t22 90t18.5 89t13.5 75q2 16 9.5 21.5t22.5 5.5h92q17 0 23 -6.5t4 -23.5zM176 539q-10 -11 -22 -11q-11 0 -21 9l-36 30q-7 7 -7 13q0 9 8 17l88 102q8 8 14 10.5t14 2.5h61 q8 0 14 -2.5t14 -10.5l88 -102q8 -8 8 -17q0 -6 -7 -13l-36 -30q-11 -9 -21 -9q-12 0 -22 11l-66 71h-5z" />
<glyph unicode="&#x178;" horiz-adv-x="534" d="M2 0zM215 0q-19 0 -25.5 6.5t-6.5 24.5v160q-22 42 -46 93.5t-47.5 107.5t-43.5 112.5t-35 109.5q-9 33 19 33h105q22 0 30 -2.5t13 -21.5q8 -32 19 -69.5t23 -75.5t24 -74t23 -65h5q11 29 23 65t23.5 74t22 75.5t18.5 69.5q5 19 13 21.5t30 2.5h102q28 0 19 -33 q-15 -53 -35 -109.5t-43 -112t-47 -107t-46 -93.5v-161q0 -18 -6.5 -24.5t-25.5 -6.5h-105zM177 860q28 0 46.5 -18t18.5 -47v-8q0 -29 -18.5 -47t-46.5 -18h-6q-28 0 -46.5 18t-18.5 47v8q0 29 18.5 47t46.5 18h6zM364 860q28 0 46.5 -18t18.5 -47v-8q0 -29 -18.5 -47 t-46.5 -18h-6q-28 0 -46.5 18t-18.5 47v8q0 29 18.5 47t46.5 18h6z" />
<glyph unicode="&#x179;" horiz-adv-x="526" d="M26 0zM461 136q20 0 27.5 -6.5t7.5 -25.5v-72q0 -20 -7.5 -26t-27.5 -6h-397q-23 0 -30.5 7t-7.5 27v30q0 17 3 26.5t13 25.5l238 395h-207q-20 0 -27.5 6.5t-7.5 24.5v73q0 20 7.5 26t27.5 6h388q18 0 25 -5.5t7 -23.5v-34q0 -16 -4 -27.5t-16 -31.5l-244 -389h232z M361 894q11 7 19 7q7 0 11.5 -5t7.5 -10l38 -62q7 -11 7 -21q0 -14 -19 -24l-169 -89q-10 -5 -21 -5q-6 0 -10.5 4t-11.5 13l-26 38q-8 12 -8 21q0 11 11 18z" />
<glyph unicode="&#x17a;" horiz-adv-x="441" d="M24 0zM55 363q-14 0 -20 5t-6 24v69q0 19 6 24t20 5h338q14 0 21.5 -6t7.5 -23v-19q0 -22 -4 -36t-18 -35l-172 -244h171q14 0 20 -5t6 -24v-69q0 -19 -6 -24t-20 -5h-344q-16 0 -23.5 6t-7.5 23v23q0 23 4 37t18 34l168 240h-159zM294 756q10 9 19 9q11 0 20 -13l48 -62 q6 -8 6 -17q0 -8 -4 -13t-12 -11l-158 -108q-11 -7 -20 -7q-8 0 -12 3t-12 11l-30 35q-11 14 -11 23q0 10 9 16z" />
<glyph unicode="&#x17b;" horiz-adv-x="526" d="M26 0zM461 136q20 0 27.5 -6.5t7.5 -25.5v-72q0 -20 -7.5 -26t-27.5 -6h-397q-23 0 -30.5 7t-7.5 27v30q0 17 3 26.5t13 25.5l238 395h-207q-20 0 -27.5 6.5t-7.5 24.5v73q0 20 7.5 26t27.5 6h388q18 0 25 -5.5t7 -23.5v-34q0 -16 -4 -27.5t-16 -31.5l-244 -389h232z M202 791q0 32 21.5 52t51.5 20t51.5 -20t21.5 -52t-21.5 -52t-51.5 -20t-51.5 20t-21.5 52z" />
<glyph unicode="&#x17c;" horiz-adv-x="441" d="M24 0zM55 363q-14 0 -20 5t-6 24v69q0 19 6 24t20 5h338q14 0 21.5 -6t7.5 -23v-19q0 -22 -4 -36t-18 -35l-172 -244h171q14 0 20 -5t6 -24v-69q0 -19 -6 -24t-20 -5h-344q-16 0 -23.5 6t-7.5 23v23q0 23 4 37t18 34l168 240h-159zM156 611q0 32 21.5 52t51.5 20 t51.5 -20t21.5 -52t-21.5 -52t-51.5 -20t-51.5 20t-21.5 52z" />
<glyph unicode="&#x17d;" horiz-adv-x="526" d="M26 0zM461 136q20 0 27.5 -6.5t7.5 -25.5v-72q0 -20 -7.5 -26t-27.5 -6h-397q-23 0 -30.5 7t-7.5 27v30q0 17 3 26.5t13 25.5l238 395h-207q-20 0 -27.5 6.5t-7.5 24.5v73q0 20 7.5 26t27.5 6h388q18 0 25 -5.5t7 -23.5v-34q0 -16 -4 -27.5t-16 -31.5l-244 -389h232z M275 802h5l66 71q10 11 22 11q10 0 21 -9l36 -30q7 -7 7 -13q0 -9 -8 -17l-88 -102q-8 -8 -14.5 -10.5t-13.5 -2.5h-61q-7 0 -13.5 2.5t-14.5 10.5l-88 102q-8 8 -8 17q0 6 7 13l36 30q10 9 21 9q12 0 22 -11z" />
<glyph unicode="&#x17e;" horiz-adv-x="441" d="M24 0zM55 363q-14 0 -20 5t-6 24v69q0 19 6 24t20 5h338q14 0 21.5 -6t7.5 -23v-19q0 -22 -4 -36t-18 -35l-172 -244h171q14 0 20 -5t6 -24v-69q0 -19 -6 -24t-20 -5h-344q-16 0 -23.5 6t-7.5 23v23q0 23 4 37t18 34l168 240h-159zM222 637h5l66 71q10 11 22 11 q10 0 21 -9l36 -30q7 -7 7 -13q0 -9 -8 -17l-88 -102q-7 -9 -14 -11t-14 -2h-61q-7 0 -14 2t-14 11l-88 102q-8 8 -8 17q0 6 7 13l36 30q10 9 21 9q12 0 22 -11z" />
<glyph unicode="&#x17f;" horiz-adv-x="297" d="M27 365q-15 0 -20 4.5t-5 20.5v49q0 19 4.5 25t21.5 11l53 13v43q0 42 9 71t31 48q43 36 132 36h10q29 0 57.5 -3t46.5 -8q17 -5 20.5 -13t1.5 -23l-6 -63q-3 -25 -29 -21q-14 2 -27 3.5t-24 1.5h-9q-34 0 -43 -9q-10 -10 -10 -35v-487q0 -14 -7 -21.5t-27 -7.5h-92 q-20 0 -27 7.5t-7 21.5v336h-54z" />
<glyph unicode="&#x192;" d="M339 -5q-5 -56 -19.5 -92t-38.5 -57t-56.5 -29t-72.5 -8h-5q-31 0 -62.5 5t-52.5 13q-14 5 -17 14t2 26l15 58q5 17 14 19t24 -1q14 -3 29.5 -5.5t28.5 -2.5q26 0 36 17.5t14 60.5l23 274h-48q-26 0 -25 22l4 55q2 17 6.5 23t18.5 8l53 6l8 99q3 56 18 92t39 57t57 29 t73 8h5q31 0 62.5 -5t52.5 -13q14 -5 17 -14t-2 -26l-15 -58q-5 -17 -14 -19t-24 1q-14 3 -29.5 5.5t-28.5 2.5q-26 0 -36.5 -17.5t-13.5 -60.5l-6 -76h99q15 0 20 -4.5t3 -17.5l-8 -75q-2 -14 -8 -18t-19 -4h-97z" />
<glyph unicode="&#x1cd;" horiz-adv-x="613" d="M15 0zM372 246q-6 24 -13.5 52t-15.5 58l-16 60t-15 56h-11q-8 -26 -16 -56t-15.5 -60t-15 -58t-13.5 -52h131zM477 0q-15 0 -24.5 2t-15 5.5t-8 10t-5.5 15.5l-23 83h-189l-23 -83q-3 -9 -5.5 -15.5t-8 -10.5t-15 -5.5t-24.5 -1.5h-87q-17 0 -25.5 4.5t-8.5 17.5 q0 5 3 16t11 39q42 141 80.5 270.5t80.5 254.5q8 25 23.5 35t47.5 10h91q32 0 47.5 -10t23.5 -35q42 -125 81.5 -254.5t81.5 -270.5q8 -28 11 -39t3 -16q0 -13 -8.5 -17.5t-25.5 -4.5h-89zM307 802h5l66 71q10 11 22 11q10 0 21 -9l36 -30q7 -7 7 -13q0 -9 -8 -17l-88 -102 q-8 -8 -14.5 -10.5t-13.5 -2.5h-61q-7 0 -13.5 2.5t-14.5 10.5l-88 102q-8 8 -8 17q0 6 7 13l36 30q10 9 21 9q12 0 22 -11z" />
<glyph unicode="&#x1ce;" horiz-adv-x="508" d="M30 0zM338 41q-15 -23 -49 -36.5t-82 -13.5h-15q-75 0 -118.5 39t-43.5 115v11q0 84 48 116t149 32h7q20 0 39.5 -1t30.5 -3v21q0 15 -3 25.5t-14 18.5q-9 6 -22 8.5t-38 2.5q-26 0 -56.5 -4.5t-59.5 -12.5q-19 -5 -25.5 0.5t-8.5 18.5l-8 53q-1 5 -1.5 11t-0.5 9 q0 10 4.5 15.5t19.5 10.5q32 9 76 15.5t95 6.5q60 0 100 -12t64 -37q38 -39 38 -125v-297q0 -15 -7 -21.5t-27 -6.5h-47q-17 0 -24.5 4.5t-12.5 18.5l-6 18h-2zM304 197q-8 2 -22.5 2.5t-25.5 0.5h-11q-35 0 -50 -8.5t-15 -36.5v-4q0 -28 15 -37t41 -9h7q17 0 28.5 4.5 t18.5 10.5q8 8 11 18.5t3 30.5v28zM258 637h5l66 71q10 11 22 11q10 0 21 -9l36 -30q7 -7 7 -13q0 -9 -8 -17l-88 -102q-7 -9 -14 -11t-14 -2h-61q-7 0 -14 2t-14 11l-88 102q-8 8 -8 17q0 6 7 13l36 30q10 9 21 9q12 0 22 -11z" />
<glyph unicode="&#x1fa;" horiz-adv-x="613" d="M15 0zM372 246q-6 24 -13.5 52t-15.5 58l-16 60t-15 56h-11q-8 -26 -16 -56t-15.5 -60t-15 -58t-13.5 -52h131zM477 0q-15 0 -24.5 2t-15 5.5t-8 10t-5.5 15.5l-23 83h-189l-23 -83q-3 -9 -5.5 -15.5t-8 -10.5t-15 -5.5t-24.5 -1.5h-87q-17 0 -25.5 4.5t-8.5 17.5 q0 5 3 16t11 39q42 141 80.5 270.5t80.5 254.5q8 25 23.5 35t47.5 10h91q32 0 47.5 -10t23.5 -35q42 -125 81.5 -254.5t81.5 -270.5q8 -28 11 -39t3 -16q0 -13 -8.5 -17.5t-25.5 -4.5h-89zM204 779q0 22 8 41t22 32.5t32.5 21t39.5 7.5q44 0 73 -28.5t29 -73.5t-29 -73.5 t-73 -28.5q-21 0 -39.5 7.5t-32.5 21t-22 32.5t-8 41zM277 779q0 -14 9 -21.5t20 -7.5t20 7.5t9 21.5t-9 21.5t-20 7.5t-20 -7.5t-9 -21.5zM367 1108q11 7 19 7q7 0 11.5 -5t7.5 -10l38 -62q7 -11 7 -21q0 -14 -19 -24l-169 -89q-10 -5 -21 -5q-6 0 -10.5 4t-11.5 13l-26 38 q-8 12 -8 21q0 11 11 18z" />
<glyph unicode="&#x1fb;" horiz-adv-x="508" d="M30 0zM338 41q-15 -23 -49 -36.5t-82 -13.5h-15q-75 0 -118.5 39t-43.5 115v11q0 84 48 116t149 32h7q20 0 39.5 -1t30.5 -3v21q0 15 -3 25.5t-14 18.5q-9 6 -22 8.5t-38 2.5q-26 0 -56.5 -4.5t-59.5 -12.5q-19 -5 -25.5 0.5t-8.5 18.5l-8 53q-1 5 -1.5 11t-0.5 9 q0 10 4.5 15.5t19.5 10.5q32 9 76 15.5t95 6.5q60 0 100 -12t64 -37q38 -39 38 -125v-297q0 -15 -7 -21.5t-27 -6.5h-47q-17 0 -24.5 4.5t-12.5 18.5l-6 18h-2zM304 197q-8 2 -22.5 2.5t-25.5 0.5h-11q-35 0 -50 -8.5t-15 -36.5v-4q0 -28 15 -37t41 -9h7q17 0 28.5 4.5 t18.5 10.5q8 8 11 18.5t3 30.5v28zM155 625q0 22 8 41t22 32.5t32.5 21t39.5 7.5q44 0 73 -28.5t29 -73.5t-29 -73.5t-73 -28.5q-21 0 -39.5 7.5t-32.5 21t-22 32.5t-8 41zM228 625q0 -14 9 -21.5t20 -7.5t20 7.5t9 21.5t-9 21.5t-20 7.5t-20 -7.5t-9 -21.5zM305 964 q10 9 19 9q11 0 20 -13l48 -62q6 -8 6 -17q0 -8 -4 -13t-12 -11l-158 -108q-11 -7 -20 -7q-8 0 -12 3t-12 11l-30 35q-11 14 -11 23q0 10 9 16z" />
<glyph unicode="&#x1fc;" horiz-adv-x="866" d="M3 0zM557 266v-109q0 -11 4.5 -16t17.5 -5h216q23 0 28.5 -5.5t5.5 -25.5v-74q0 -18 -5.5 -24.5t-28.5 -6.5h-241q-74 0 -113 21t-39 84v26h-173l-50 -104q-7 -14 -18 -20.5t-37 -6.5h-83q-20 0 -29 6.5t1 26.5q37 76 76 155t77 155l73 146t65 129q14 29 51 29h441 q24 0 28.5 -5.5t4.5 -25.5v-75q0 -18 -4.5 -24t-28.5 -6h-237v-119h208q19 0 25.5 -5.5t6.5 -23.5v-70q0 -16 -6.5 -21.5t-25.5 -5.5h-210zM285 263h117v248h-10zM622 894q11 7 19 7q7 0 11.5 -5t7.5 -10l38 -62q7 -11 7 -21q0 -14 -19 -24l-169 -89q-10 -5 -21 -5 q-6 0 -10.5 4t-11.5 13l-26 38q-8 12 -8 21q0 11 11 18z" />
<glyph unicode="&#x1fd;" horiz-adv-x="768" d="M30 0zM569 120q24 0 55.5 4t50.5 9q4 1 9 2t10 1q15 0 18 -17l8 -50q2 -8 3 -15t1 -12q0 -10 -5 -16t-21 -11q-30 -11 -72 -17.5t-79 -6.5h-19q-60 0 -100 14.5t-64 40.5h-2q-23 -27 -56 -41t-93 -14h-15q-168 0 -168 154v11q0 84 48 116t149 32h7q20 0 39.5 -1t30.5 -3 v21q0 15 -3 25.5t-14 18.5q-9 6 -22 8.5t-38 2.5q-26 0 -56.5 -4.5t-59.5 -12.5q-19 -5 -25.5 0.5t-8.5 18.5l-8 53q-1 6 -1.5 11.5t-0.5 8.5q0 10 4.5 15.5t19.5 10.5q32 9 76 15.5t95 6.5q44 0 78.5 -12.5t48.5 -35.5q19 22 54.5 35t77.5 13h14q54 0 92.5 -13.5 t58.5 -36.5q26 -29 37 -71.5t11 -107.5v-52q0 -16 -7 -22t-22 -6h-240v-8q0 -35 20 -48.5t73 -13.5h11zM304 197q-8 2 -22.5 2.5t-25.5 0.5h-11q-35 0 -50 -8.5t-15 -36.5v-4q0 -28 15 -37t41 -9h7q17 0 28.5 4.5t18.5 10.5q8 8 11 18.5t3 30.5v28zM575 294q12 0 12 13v16 q0 30 -10 46q-12 18 -46 18h-9q-29 0 -42 -14q-15 -17 -15 -54v-25h110zM483 756q10 9 19 9q11 0 20 -13l48 -62q6 -8 6 -17q0 -8 -4 -13t-12 -11l-158 -108q-11 -7 -20 -7q-8 0 -12 3t-12 11l-30 35q-11 14 -11 23q0 10 9 16z" />
<glyph unicode="&#x1fe;" horiz-adv-x="636" d="M46 0zM590 285q0 -87 -18.5 -148.5t-65.5 -98.5q-29 -23 -73.5 -35t-109.5 -12h-10q-66 0 -111 12l-31 -55q-11 -21 -23 -21q-5 0 -10 2t-13 6l-29 14q-10 5 -13 9.5t-3 10.5t2.5 12t5.5 12l30 55q-40 38 -56 97t-16 140v77q0 87 18.5 148.5t65.5 98.5q29 23 73.5 35 t109.5 12h10q73 0 124 -17l38 69q6 11 11 15t11 4q9 0 23 -7l21 -11q14 -8 18.5 -13t4.5 -10q0 -7 -4 -15.5t-11 -20.5l-33 -60q35 -38 49.5 -95t14.5 -133v-77zM217 305v-40.5t2 -34.5l153 276q-17 10 -47 10h-14q-23 0 -38.5 -6t-27.5 -18q-18 -18 -23 -56t-5 -94v-37z M419 342v27t-1 25l-143 -258q8 -3 16.5 -4t19.5 -1h14q23 0 38.5 6t27.5 18q18 18 23 56t5 94v37zM398 894q11 7 19 7q7 0 11.5 -5t7.5 -10l38 -62q7 -11 7 -21q0 -14 -19 -24l-169 -89q-10 -5 -21 -5q-6 0 -10.5 4t-11.5 13l-26 38q-8 12 -8 21q0 11 11 18z" />
<glyph unicode="&#x1ff;" horiz-adv-x="516" d="M35 0zM196 206v-1l103 157q-14 12 -39 12h-4q-28 0 -42 -14q-11 -11 -14.5 -27t-3.5 -49v-78zM302 130q11 11 14.5 27t3.5 49v67l-98 -150q11 -7 34 -7h4q28 0 42 14zM87 39q-26 25 -39 64.5t-13 109.5v64q0 38 4 67t12 50.5t19.5 37.5t27.5 28q22 17 61 28t93 11h12 q34 0 62 -4.5t51 -12.5l34 51q7 11 10.5 14t7.5 3q3 0 6.5 -1t10.5 -6l16 -11q8 -5 11 -9t3 -7q0 -5 -3 -10t-8 -12l-32 -48q24 -24 36 -62.5t12 -105.5v-65q0 -38 -4 -67t-12 -50.5t-19.5 -37.5t-27.5 -28q-22 -17 -61 -28t-93 -11h-12q-32 0 -59 4t-48 11l-30 -45 q-7 -11 -10.5 -14t-7.5 -3q-3 0 -6.5 1t-10.5 6l-16 11q-8 5 -11 9t-3 7q0 5 3 10t8 12zM329 756q10 9 19 9q11 0 20 -13l48 -62q6 -8 6 -17q0 -8 -4 -13t-12 -11l-158 -108q-11 -7 -20 -7q-8 0 -12 3t-12 11l-30 35q-11 14 -11 23q0 10 9 16z" />
<glyph unicode="&#x218;" horiz-adv-x="542" d="M42 0zM255 -9q-21 0 -46 2t-50 6t-47.5 9t-39.5 11q-20 7 -25 16.5t-3 23.5l13 81q4 31 35 20q43 -15 85.5 -23t74.5 -8h5q47 0 65.5 13t18.5 44v10q0 31 -17.5 42t-61.5 19l-68 13q-44 8 -73 23t-46.5 37t-25 51t-7.5 65v28q0 84 45 128q29 28 76.5 41t122.5 13h7 q45 0 92.5 -7.5t77.5 -18.5q16 -6 20 -15.5t-1 -29.5l-17 -73q-6 -27 -37 -17q-34 11 -66 16t-66 5h-4q-50 0 -68.5 -11.5t-18.5 -38.5v-9q0 -24 13.5 -34t51.5 -18l76 -15q43 -9 73.5 -21t49 -32t27 -50.5t8.5 -76.5v-24q0 -99 -55 -147t-182 -48h-12zM289 -56q30 0 43 -15 t13 -47v-18q0 -43 -20 -82.5t-56 -72.5q-10 -10 -18 -10q-7 0 -19 11l-25 23q-6 6 -6 12q0 5 3.5 9t9.5 11t11 13t9 11q5 6 8.5 11t3.5 10q0 3 -4 6q-15 8 -23 19t-8 33v21q0 26 14.5 40.5t42.5 14.5h21z" />
<glyph unicode="&#x219;" horiz-adv-x="453" d="M28 0zM38 342q0 74 39 112q46 45 152 45h10q17 0 37 -1.5t40 -4t38 -5.5t31 -7t16 -9.5t1 -16.5l-11 -82q-3 -19 -27 -13q-26 6 -53 10t-53 4h-1q-33 0 -46 -6t-13 -21v-3q0 -14 12 -20.5t45 -13.5l47 -10q32 -7 54.5 -17.5t37 -26.5t21 -39t6.5 -54v-15 q0 -78 -47.5 -117.5t-148.5 -39.5h-10q-21 0 -43.5 2t-45 5.5t-43 8.5t-35.5 11q-14 5 -17 12t0 23l14 66q5 29 34 19q25 -8 59.5 -15.5t60.5 -7.5h3q34 0 46.5 7t12.5 23v3q0 13 -10.5 19.5t-48.5 14.5l-44 10q-64 14 -92 44t-28 93v13zM244 -56q30 0 43 -15t13 -47v-18 q0 -43 -20 -82.5t-56 -72.5q-10 -10 -18 -10q-7 0 -19 11l-25 23q-6 6 -6 12q0 5 3.5 9t9.5 11t11 13t9 11q5 6 8.5 11t3.5 10q0 3 -4 6q-15 8 -23 19t-8 33v21q0 26 14.5 40.5t42.5 14.5h21z" />
<glyph unicode="&#x21a;" horiz-adv-x="523" d="M14 0zM46 511q-20 0 -26 6t-6 24v75q0 20 6 25.5t26 5.5h431q20 0 26 -5.5t6 -25.5v-75q0 -18 -6 -24t-26 -6h-131v-479q0 -19 -7 -25.5t-30 -6.5h-95q-23 0 -30 6.5t-7 25.5v479h-131z" />
<glyph unicode="&#x21b;" horiz-adv-x="389" d="M2 0zM364 37q0 -22 -6 -29.5t-26 -7.5h-80q-60 0 -91.5 8.5t-50.5 28.5q-16 17 -22.5 45t-6.5 76v207h-54q-14 0 -19.5 5.5t-5.5 19.5v51q0 19 5 24.5t21 9.5l53 13v98q0 14 7 21.5t27 7.5h92q20 0 27 -7.5t7 -21.5v-96h83q14 0 20 -5t6 -24v-67q0 -19 -6 -24t-20 -5h-83 v-189q0 -13 1.5 -21t6.5 -14q5 -5 13.5 -7.5t25.5 -2.5h44q20 0 26 -7.5t6 -29.5v-57zM244 -56q30 0 43 -15t13 -47v-18q0 -43 -20 -82.5t-56 -72.5q-10 -10 -18 -10q-7 0 -19 11l-25 23q-6 6 -6 12q0 5 3.5 9t9.5 11t11 13t9 11q5 6 8.5 11t3.5 10q0 3 -4 6q-15 8 -23 19 t-8 33v21q0 26 14.5 40.5t42.5 14.5h21z" />
<glyph unicode="&#x2c6;" horiz-adv-x="369" d="M116 539q-10 -11 -22 -11q-11 0 -21 9l-36 30q-7 7 -7 13q0 9 8 17l88 102q8 8 14 10.5t14 2.5h61q8 0 14 -2.5t14 -10.5l88 -102q8 -8 8 -17q0 -6 -7 -13l-36 -30q-11 -9 -21 -9q-12 0 -22 11l-66 71h-5z" />
<glyph unicode="&#x2c7;" horiz-adv-x="369" d="M182 637h5l66 71q10 11 22 11q10 0 21 -9l36 -30q7 -7 7 -13q0 -9 -8 -17l-88 -102q-7 -9 -14 -11t-14 -2h-61q-7 0 -14 2t-14 11l-88 102q-8 8 -8 17q0 6 7 13l36 30q10 9 21 9q12 0 22 -11z" />
<glyph unicode="&#x2d8;" horiz-adv-x="368" d="M186 638q41 0 68 59q5 11 15 11q5 0 13 -3l49 -19q13 -4 13 -16q0 -8 -3.5 -15.5t-5.5 -12.5q-22 -46 -58 -73.5t-90 -27.5h-6q-54 0 -90 27.5t-58 73.5q-2 5 -5.5 12.5t-3.5 15.5q0 12 13 16l49 19q7 3 13 3q10 0 15 -11q27 -59 68 -59h4z" />
<glyph unicode="&#x2d9;" horiz-adv-x="496" d="M175 611q0 32 21.5 52t51.5 20t51.5 -20t21.5 -52t-21.5 -52t-51.5 -20t-51.5 20t-21.5 52z" />
<glyph unicode="&#x2da;" horiz-adv-x="450" d="M123 628q0 22 8 41t22 32.5t32.5 21t39.5 7.5q44 0 73 -28.5t29 -73.5t-29 -73.5t-73 -28.5q-21 0 -39.5 7.5t-32.5 21t-22 32.5t-8 41zM196 628q0 -14 9 -21.5t20 -7.5t20 7.5t9 21.5t-9 21.5t-20 7.5t-20 -7.5t-9 -21.5z" />
<glyph unicode="&#x2db;" horiz-adv-x="449" d="M283 4q8 0 8.5 -4.5t-4.5 -8.5q-29 -21 -44.5 -45t-15.5 -47v-3q0 -24 27 -24h3q10 0 22 2.5t21 5.5q8 2 12 2q3 0 6.5 -2.5t5.5 -10.5l5 -21q5 -20 5 -23q0 -9 -14 -15q-17 -7 -38 -11t-43 -4h-6q-52 0 -79 22t-27 64v3q0 29 20.5 61t59.5 52q12 7 32 7h44z" />
<glyph unicode="&#x2dc;" horiz-adv-x="349" d="M10 566q-8 5 -8 12q0 6 3 14q20 48 50 71.5t62 23.5q20 0 34.5 -5.5t28.5 -14.5l19 -12q23 -14 35 -14t22 7.5t21 24.5q5 8 13 8q5 0 13 -5l38 -26q9 -8 9 -14t-4 -13.5t-8 -12.5q-46 -69 -107 -69q-30 0 -56 16l-20 13q-20 13 -34 13q-9 0 -18.5 -6.5t-23.5 -28.5 q-6 -9 -14 -9q-5 0 -12 3z" />
<glyph unicode="&#x2dd;" horiz-adv-x="490" d="M153 768q8 8 18 8q9 1 18 -9l52 -59q12 -12 12 -21q0 -5 -2.5 -8.5t-10.5 -9.5l-147 -121q-5 -4 -9 -6.5t-9 -2.5q-9 0 -18 9l-40 40q-6 6 -8 10.5t-2 7.5q-1 7 11 20zM384 768q8 8 18 8q9 1 18 -9l52 -59q12 -12 12 -21q0 -5 -2.5 -8.5t-10.5 -9.5l-147 -121 q-5 -4 -9 -6.5t-9 -2.5q-9 0 -18 9l-40 40q-6 6 -8 10.5t-2 7.5q-1 7 11 20z" />
<glyph unicode="&#x326;" horiz-adv-x="471" d="M244 -56q30 0 43 -15t13 -47v-18q0 -43 -20 -82.5t-56 -72.5q-10 -10 -18 -10q-7 0 -19 11l-25 23q-6 6 -6 12q0 5 3.5 9t9.5 11t11 13t9 11q5 6 8.5 11t3.5 10q0 3 -4 6q-15 8 -23 19t-8 33v21q0 26 14.5 40.5t42.5 14.5h21z" />
<glyph unicode="&#x394;" horiz-adv-x="632" d="M416 141q-12 39 -23 71.5t-22 64.5t-24 68t-29 82h-5q-26 -72 -49 -141t-46 -145h198zM366 647q18 0 27 -8t17 -27q31 -77 56 -140t46 -116t38 -99.5t34 -90.5q9 -24 13.5 -38.5t4.5 -34.5v-58q0 -20 -7.5 -27.5t-32.5 -7.5h-492q-25 0 -32.5 7.5t-7.5 27.5v58 q0 20 4.5 34.5t13.5 38.5q16 44 33.5 90.5t38.5 99.5t45.5 116t56.5 140q8 19 17 27t27 8q-1 -1 15 -0.5t35 0.5h50z" />
<glyph unicode="&#x3a9;" horiz-adv-x="665" d="M331 518q-21 0 -36.5 -4.5t-25.5 -10.5q-21 -13 -33.5 -40.5t-12.5 -87.5v-15q0 -63 14 -116t37 -90q16 -26 24.5 -39.5t8.5 -34.5v-64q0 -7 -3 -11.5t-12 -4.5h-232q-16 0 -21.5 8t-5.5 20v80q0 11 5.5 17.5t21.5 6.5h74v3q-35 36 -58.5 91.5t-23.5 130.5v25 q0 79 23.5 132t68.5 88q30 23 75 38.5t109 15.5h9q64 0 109 -15.5t75 -38.5q45 -35 68.5 -88t23.5 -132v-25q0 -75 -23.5 -130.5t-58.5 -91.5v-3h74q16 0 21.5 -6.5t5.5 -17.5v-80q0 -12 -5.5 -20t-21.5 -8h-232q-9 0 -12 4.5t-3 11.5v64q0 21 8.5 34.5t24.5 39.5 q23 37 37 90t14 116v15q0 60 -12.5 87.5t-33.5 40.5q-10 6 -25.5 10.5t-36.5 4.5h-3z" />
<glyph unicode="&#x3bc;" horiz-adv-x="576" d="M211 -147q0 -14 -7 -21.5t-27 -7.5h-92q-20 0 -27 7.5t-7 21.5v608q0 14 7 21.5t27 7.5h92q20 0 27 -7.5t7 -21.5v-279q0 -33 10 -45.5t39 -12.5h6q29 0 42 13.5t13 44.5v279q0 14 7 21.5t27 7.5h92q20 0 27 -7.5t7 -21.5v-304q0 -33 27 -33h3q6 0 13 1t12 3q20 6 21 -15 l4 -51q1 -14 1.5 -20.5t0.5 -9.5q0 -8 -3 -12t-12 -9q-14 -8 -39 -14t-54 -6h-5q-36 0 -60.5 8.5t-39.5 28.5h-3q-11 -15 -32 -26t-50 -11h-6q-27 0 -48 8v-146z" />
<glyph unicode="&#x3c0;" horiz-adv-x="673" d="M539 160q0 -22 6.5 -30t21.5 -8q7 0 15 0.5t14 1.5q20 3 23 -19l7 -70q1 -11 -2 -17t-14 -11q-14 -6 -39 -11t-61 -5h-4q-70 0 -101 39q-14 17 -20 41.5t-6 62.5v223h-86v-319q0 -23 -6 -30.5t-30 -7.5h-88q-23 0 -29.5 7.5t-6.5 30.5v319h-64q-24 0 -27.5 6.5t-3.5 23.5 v73q0 18 5.5 24t25.5 6h535q19 0 25 -5.5t6 -23.5v-74q0 -17 -5.5 -23.5t-22.5 -6.5h-68v-197z" />
<glyph unicode="&#x1e80;" horiz-adv-x="832" d="M7 0zM413 363q-18 -90 -38.5 -175.5t-38.5 -154.5q-5 -17 -16.5 -25t-40.5 -8h-90q-28 0 -39 7t-16 24q-35 139 -67.5 291t-57.5 299q-2 14 4.5 20t26.5 6h99q18 0 27.5 -4.5t11.5 -21.5q20 -135 36.5 -242t30.5 -199h4q10 50 21.5 104t22.5 106.5t21 101.5t19 90 q3 14 12.5 20t29.5 6h82q20 0 29.5 -6t12.5 -20q9 -41 19 -90t21 -101.5t22 -106.5t22 -104h4q14 92 30 199t37 242q2 17 11.5 21.5t27.5 4.5h99q20 0 26.5 -6t4.5 -20q-26 -147 -58 -299t-67 -291q-5 -17 -16 -24t-39 -7h-90q-29 0 -40.5 8t-16.5 25q-18 69 -38.5 154.5 t-38.5 175.5h-6zM508 779q11 -7 11 -18q0 -9 -8 -21l-26 -38q-7 -9 -11.5 -13t-10.5 -4q-11 0 -21 5l-169 89q-19 10 -19 24q0 10 7 21l38 62q3 5 7.5 10t11.5 5q8 0 19 -7z" />
<glyph unicode="&#x1e81;" horiz-adv-x="699" d="M4 0zM393 466q21 0 29 -5t11 -25q4 -27 11.5 -63t15 -73t14.5 -71.5t12 -58.5h3q4 25 10.5 61.5t13 77t12.5 81t11 72.5q2 17 7.5 22.5t21.5 5.5h102q18 0 22.5 -7t1.5 -23q-11 -53 -26 -120.5t-30 -130.5t-28.5 -114t-21.5 -71q-6 -16 -13.5 -20t-23.5 -4h-110 q-20 0 -27.5 6t-10.5 17q-7 27 -14.5 61.5t-14 70t-12 69t-8.5 57.5h-4q-3 -24 -9 -57.5t-12.5 -69t-14 -70t-14.5 -61.5q-3 -12 -11 -17.5t-25 -5.5h-108q-17 0 -25 5t-13 17q-8 21 -21.5 72t-29 114.5t-31 131t-25.5 120.5q-4 18 3 24t23 6h98q17 0 23.5 -6t8.5 -22 q5 -33 12 -76.5t14.5 -86t13.5 -78t9 -51.5h4q5 24 11.5 58t13.5 71t13.5 73t10.5 64q3 21 11 25.5t30 4.5h86zM470 622q9 -6 9 -16q0 -9 -11 -23l-30 -35q-8 -8 -12 -11t-12 -3q-10 0 -20 7l-158 108q-8 6 -12 11t-4 13q0 9 6 17l48 62q9 13 20 13q9 0 19 -9z" />
<glyph unicode="&#x1e82;" horiz-adv-x="832" d="M7 0zM413 363q-18 -90 -38.5 -175.5t-38.5 -154.5q-5 -17 -16.5 -25t-40.5 -8h-90q-28 0 -39 7t-16 24q-35 139 -67.5 291t-57.5 299q-2 14 4.5 20t26.5 6h99q18 0 27.5 -4.5t11.5 -21.5q20 -135 36.5 -242t30.5 -199h4q10 50 21.5 104t22.5 106.5t21 101.5t19 90 q3 14 12.5 20t29.5 6h82q20 0 29.5 -6t12.5 -20q9 -41 19 -90t21 -101.5t22 -106.5t22 -104h4q14 92 30 199t37 242q2 17 11.5 21.5t27.5 4.5h99q20 0 26.5 -6t4.5 -20q-26 -147 -58 -299t-67 -291q-5 -17 -16 -24t-39 -7h-90q-29 0 -40.5 8t-16.5 25q-18 69 -38.5 154.5 t-38.5 175.5h-6zM500 894q11 7 19 7q7 0 11.5 -5t7.5 -10l38 -62q7 -11 7 -21q0 -14 -19 -24l-169 -89q-10 -5 -21 -5q-6 0 -10.5 4t-11.5 13l-26 38q-8 12 -8 21q0 11 11 18z" />
<glyph unicode="&#x1e83;" horiz-adv-x="699" d="M4 0zM393 466q21 0 29 -5t11 -25q4 -27 11.5 -63t15 -73t14.5 -71.5t12 -58.5h3q4 25 10.5 61.5t13 77t12.5 81t11 72.5q2 17 7.5 22.5t21.5 5.5h102q18 0 22.5 -7t1.5 -23q-11 -53 -26 -120.5t-30 -130.5t-28.5 -114t-21.5 -71q-6 -16 -13.5 -20t-23.5 -4h-110 q-20 0 -27.5 6t-10.5 17q-7 27 -14.5 61.5t-14 70t-12 69t-8.5 57.5h-4q-3 -24 -9 -57.5t-12.5 -69t-14 -70t-14.5 -61.5q-3 -12 -11 -17.5t-25 -5.5h-108q-17 0 -25 5t-13 17q-8 21 -21.5 72t-29 114.5t-31 131t-25.5 120.5q-4 18 3 24t23 6h98q17 0 23.5 -6t8.5 -22 q5 -33 12 -76.5t14.5 -86t13.5 -78t9 -51.5h4q5 24 11.5 58t13.5 71t13.5 73t10.5 64q3 21 11 25.5t30 4.5h86zM424 756q10 9 19 9q11 0 20 -13l48 -62q6 -8 6 -17q0 -8 -4 -13t-12 -11l-158 -108q-11 -7 -20 -7q-8 0 -12 3t-12 11l-30 35q-11 14 -11 23q0 10 9 16z" />
<glyph unicode="&#x1e84;" horiz-adv-x="832" d="M7 0zM413 363q-18 -90 -38.5 -175.5t-38.5 -154.5q-5 -17 -16.5 -25t-40.5 -8h-90q-28 0 -39 7t-16 24q-35 139 -67.5 291t-57.5 299q-2 14 4.5 20t26.5 6h99q18 0 27.5 -4.5t11.5 -21.5q20 -135 36.5 -242t30.5 -199h4q10 50 21.5 104t22.5 106.5t21 101.5t19 90 q3 14 12.5 20t29.5 6h82q20 0 29.5 -6t12.5 -20q9 -41 19 -90t21 -101.5t22 -106.5t22 -104h4q14 92 30 199t37 242q2 17 11.5 21.5t27.5 4.5h99q20 0 26.5 -6t4.5 -20q-26 -147 -58 -299t-67 -291q-5 -17 -16 -24t-39 -7h-90q-29 0 -40.5 8t-16.5 25q-18 69 -38.5 154.5 t-38.5 175.5h-6zM326 860q28 0 46.5 -18t18.5 -47v-8q0 -29 -18.5 -47t-46.5 -18h-6q-28 0 -46.5 18t-18.5 47v8q0 29 18.5 47t46.5 18h6zM513 860q28 0 46.5 -18t18.5 -47v-8q0 -29 -18.5 -47t-46.5 -18h-6q-28 0 -46.5 18t-18.5 47v8q0 29 18.5 47t46.5 18h6z" />
<glyph unicode="&#x1e85;" horiz-adv-x="699" d="M4 0zM393 466q21 0 29 -5t11 -25q4 -27 11.5 -63t15 -73t14.5 -71.5t12 -58.5h3q4 25 10.5 61.5t13 77t12.5 81t11 72.5q2 17 7.5 22.5t21.5 5.5h102q18 0 22.5 -7t1.5 -23q-11 -53 -26 -120.5t-30 -130.5t-28.5 -114t-21.5 -71q-6 -16 -13.5 -20t-23.5 -4h-110 q-20 0 -27.5 6t-10.5 17q-7 27 -14.5 61.5t-14 70t-12 69t-8.5 57.5h-4q-3 -24 -9 -57.5t-12.5 -69t-14 -70t-14.5 -61.5q-3 -12 -11 -17.5t-25 -5.5h-108q-17 0 -25 5t-13 17q-8 21 -21.5 72t-29 114.5t-31 131t-25.5 120.5q-4 18 3 24t23 6h98q17 0 23.5 -6t8.5 -22 q5 -33 12 -76.5t14.5 -86t13.5 -78t9 -51.5h4q5 24 11.5 58t13.5 71t13.5 73t10.5 64q3 21 11 25.5t30 4.5h86zM260 695q28 0 46.5 -18t18.5 -47v-8q0 -29 -18.5 -47t-46.5 -18h-6q-28 0 -46.5 18t-18.5 47v8q0 29 18.5 47t46.5 18h6zM447 695q28 0 46.5 -18t18.5 -47v-8 q0 -29 -18.5 -47t-46.5 -18h-6q-28 0 -46.5 18t-18.5 47v8q0 29 18.5 47t46.5 18h6z" />
<glyph unicode="&#x1ef2;" horiz-adv-x="534" d="M2 0zM215 0q-19 0 -25.5 6.5t-6.5 24.5v160q-22 42 -46 93.5t-47.5 107.5t-43.5 112.5t-35 109.5q-9 33 19 33h105q22 0 30 -2.5t13 -21.5q8 -32 19 -69.5t23 -75.5t24 -74t23 -65h5q11 29 23 65t23.5 74t22 75.5t18.5 69.5q5 19 13 21.5t30 2.5h102q28 0 19 -33 q-15 -53 -35 -109.5t-43 -112t-47 -107t-46 -93.5v-161q0 -18 -6.5 -24.5t-25.5 -6.5h-105zM362 779q11 -7 11 -18q0 -9 -8 -21l-26 -38q-7 -9 -11.5 -13t-10.5 -4q-11 0 -21 5l-169 89q-19 10 -19 24q0 10 7 21l38 62q3 5 7.5 10t11.5 5q8 0 19 -7z" />
<glyph unicode="&#x1ef3;" horiz-adv-x="482" d="M1 0zM475 460q-10 -67 -29.5 -145.5t-47 -161.5t-63.5 -168t-79 -164q-6 -12 -12.5 -16.5t-15.5 -4.5q-11 0 -29 8l-51 22q-26 12 -26 25q0 7 5 17l16.5 33t17 33.5t15 30.5t9.5 23q-20 8 -35.5 22t-29.5 46t-30.5 83t-32.5 108t-29 113t-21 97q-6 29 30 29h91 q17 0 24.5 -4.5t10.5 -19.5q7 -41 16.5 -85t19.5 -87.5t20.5 -85t21.5 -77.5h5q12 34 24 78t22 90t18.5 89t13.5 75q2 16 9.5 21.5t22.5 5.5h92q17 0 23 -6.5t4 -23.5zM348 622q9 -6 9 -16q0 -9 -11 -23l-30 -35q-8 -8 -12 -11t-12 -3q-10 0 -20 7l-158 108q-8 6 -12 11 t-4 13q0 9 6 17l48 62q9 13 20 13q9 0 19 -9z" />
<glyph unicode="&#x2013;" horiz-adv-x="500" d="M40 188q-25 0 -32.5 7t-7.5 25v75q0 18 8.5 25t31.5 7h420q23 0 31.5 -7t8.5 -25v-75q0 -18 -7.5 -25t-32.5 -7h-420z" />
<glyph unicode="&#x2014;" horiz-adv-x="1000" d="M40 188q-25 0 -32.5 7t-7.5 25v75q0 18 8.5 25t31.5 7h926q19 0 26.5 -6t7.5 -26v-75q0 -20 -7.5 -26t-26.5 -6h-926z" />
<glyph unicode="&#x2018;" horiz-adv-x="275" d="M40 390zM124.008 390.01q-45.9971 0 -64.9961 21.999t-18.999 66.9961v12.999q0 20.999 6.5 49.4971q6.49902 28.498 19.499 60.4961q12.999 31.998 33.498 65.9961q20.498 33.998 47.4971 64.9961q8.99902 10.999 19.998 10.999q6 0 15.999 -5l49.9971 -29.998 q9 -4.99902 9 -12.999q0 -7.99902 -6 -15.999q-10.999 -13.999 -20.499 -28.498q-9.49902 -14.499 -19.498 -29.498q-8 -11 -13 -21.499q-4.99902 -10.499 -4.99902 -19.499q0 -7.99902 7.99902 -12.999l10 -6.99902q13.999 -11 19.498 -24.499q5.5 -13.499 5.5 -38.4971 v-27.999q0 -37.9971 -18.999 -58.9961t-63.9961 -20.999h-13.999z" />
<glyph unicode="&#x2019;" horiz-adv-x="275" d="M33 390zM151 744q46 0 65 -22t19 -67v-13q0 -21 -6.5 -49.5t-19.5 -60.5t-33.5 -66t-47.5 -65q-9 -11 -20 -11q-6 0 -16 5l-50 30q-9 5 -9 13t6 16q11 14 20.5 28.5t19.5 29.5q8 11 13 21.5t5 19.5q0 8 -8 13l-10 7q-14 11 -19.5 24.5t-5.5 38.5v28q0 38 19 59t64 21h14z " />
<glyph unicode="&#x201a;" horiz-adv-x="275" d="M33 0zM151 165q46 0 65 -22t19 -67v-13q0 -21 -6.5 -49.5t-19.5 -60.5t-33.5 -66t-47.5 -65q-9 -11 -20 -11q-6 0 -16 5l-50 30q-9 5 -9 13t6 16q11 14 20.5 28.5t19.5 29.5q8 11 13 21.5t5 19.5q0 8 -8 13l-10 7q-14 11 -19.5 24.5t-5.5 38.5v28q0 38 19 59t64 21h14z " />
<glyph unicode="&#x201c;" horiz-adv-x="524" d="M40 390zM373.008 390.01q-45.9971 0 -64.9961 21.999t-18.999 66.9961v12.999q0 20.999 6.5 49.4971q6.49902 28.498 19.499 60.4961q12.999 31.998 33.498 65.9961q20.498 33.998 47.4971 64.9961q8.99902 10.999 19.998 10.999q6 0 15.999 -5l49.9971 -29.998 q9 -4.99902 9 -12.999q0 -7.99902 -6 -15.999q-10.999 -13.999 -20.499 -28.498q-9.49902 -14.499 -19.498 -29.498q-8 -11 -13 -21.499q-4.99902 -10.499 -4.99902 -19.499q0 -7.99902 7.99902 -12.999l10 -6.99902q13.999 -11 19.498 -24.499q5.5 -13.499 5.5 -38.4971 v-27.999q0 -37.9971 -18.999 -58.9961t-63.9961 -20.999h-13.999zM124.008 390.01q-45.9971 0 -64.9961 21.999t-18.999 66.9961v12.999q0 20.999 6.5 49.4971q6.49902 28.498 19.499 60.4961q12.999 31.998 33.498 65.9961q20.498 33.998 47.4971 64.9961 q8.99902 10.999 19.998 10.999q6 0 15.999 -5l49.9971 -29.998q9 -4.99902 9 -12.999q0 -7.99902 -6 -15.999q-10.999 -13.999 -20.499 -28.498q-9.49902 -14.499 -19.498 -29.498q-8 -11 -13 -21.499q-4.99902 -10.499 -4.99902 -19.499q0 -7.99902 7.99902 -12.999 l10 -6.99902q13.999 -11 19.498 -24.499q5.5 -13.499 5.5 -38.4971v-27.999q0 -37.9971 -18.999 -58.9961t-63.9961 -20.999h-13.999z" />
<glyph unicode="&#x201d;" horiz-adv-x="524" d="M33 390zM400 744q46 0 65 -22t19 -67v-13q0 -21 -6.5 -49.5t-19.5 -60.5t-33.5 -66t-47.5 -65q-9 -11 -20 -11q-6 0 -16 5l-50 30q-9 5 -9 13t6 16q11 14 20.5 28.5t19.5 29.5q8 11 13 21.5t5 19.5q0 8 -8 13l-10 7q-14 11 -19.5 24.5t-5.5 38.5v28q0 38 19 59t64 21h14z M151 744q46 0 65 -22t19 -67v-13q0 -21 -6.5 -49.5t-19.5 -60.5t-33.5 -66t-47.5 -65q-9 -11 -20 -11q-6 0 -16 5l-50 30q-9 5 -9 13t6 16q11 14 20.5 28.5t19.5 29.5q8 11 13 21.5t5 19.5q0 8 -8 13l-10 7q-14 11 -19.5 24.5t-5.5 38.5v28q0 38 19 59t64 21h14z" />
<glyph unicode="&#x201e;" horiz-adv-x="524" d="M33 0zM400 165q46 0 65 -22t19 -67v-13q0 -21 -6.5 -49.5t-19.5 -60.5t-33.5 -66t-47.5 -65q-9 -11 -20 -11q-6 0 -16 5l-50 30q-9 5 -9 13t6 16q11 14 20.5 28.5t19.5 29.5q8 11 13 21.5t5 19.5q0 8 -8 13l-10 7q-14 11 -19.5 24.5t-5.5 38.5v28q0 38 19 59t64 21h14z M151 165q46 0 65 -22t19 -67v-13q0 -21 -6.5 -49.5t-19.5 -60.5t-33.5 -66t-47.5 -65q-9 -11 -20 -11q-6 0 -16 5l-50 30q-9 5 -9 13t6 16q11 14 20.5 28.5t19.5 29.5q8 11 13 21.5t5 19.5q0 8 -8 13l-10 7q-14 11 -19.5 24.5t-5.5 38.5v28q0 38 19 59t64 21h14z" />
<glyph unicode="&#x2020;" horiz-adv-x="467" d="M310 34q0 -20 -9.5 -27t-32.5 -7h-73q-26 0 -32.5 7t-6.5 27l-3 313l-85 -2q-22 -1 -27.5 8t-5.5 32v58q0 26 5.5 34t27.5 7l84 -2l-4 125q-1 23 8 29.5t38 6.5h76q29 0 38 -6.5t9 -29.5l-2 -125l84 2q22 1 27.5 -7t5.5 -34v-58q0 -23 -5.5 -32t-27.5 -8l-85 2z" />
<glyph unicode="&#x2021;" horiz-adv-x="467" d="M311 132l-1 -98q0 -20 -9.5 -27t-32.5 -7h-73q-26 0 -32.5 7t-6.5 27l-1 98l-77 -2q-22 -1 -27.5 8t-5.5 32v58q0 26 5.5 34t27.5 7l76 -2l-1 80l-81 -2q-22 -1 -29.5 8t-7.5 32v58q0 26 7.5 34t29.5 7l80 -2l-4 125q-1 23 7.5 29.5t37.5 6.5h78q29 0 37.5 -6.5 t8.5 -29.5l-2 -125l84 2q22 1 27.5 -7t5.5 -34v-58q0 -23 -5.5 -32t-27.5 -8l-85 2l-1 -80l76 2q22 1 27.5 -7t5.5 -34v-58q0 -23 -5.5 -32t-27.5 -8z" />
<glyph unicode="&#x2022;" horiz-adv-x="396" d="M56 263q0 30 11 56t30 45.5t44.5 30.5t55.5 11t56 -11t45.5 -30.5t30.5 -45.5t11 -56t-11 -55.5t-30.5 -44.5t-45.5 -30t-56 -11t-55.5 11t-44.5 30t-30 44.5t-11 55.5z" />
<glyph unicode="&#x2026;" horiz-adv-x="729" d="M207 74q0 -46 -21 -64.5t-59 -18.5h-11q-38 0 -59 18.5t-21 64.5v10q0 46 21 63.5t59 17.5h11q38 0 59 -17.5t21 -63.5v-10zM450 74q0 -46 -21 -64.5t-59 -18.5h-11q-38 0 -59 18.5t-21 64.5v10q0 46 21 63.5t59 17.5h11q38 0 59 -17.5t21 -63.5v-10zM693 74 q0 -46 -21 -64.5t-59 -18.5h-11q-38 0 -59 18.5t-21 64.5v10q0 46 21 63.5t59 17.5h11q38 0 59 -17.5t21 -63.5v-10z" />
<glyph unicode="&#x2030;" horiz-adv-x="1308" d="M373 467q0 -40 -10 -78t-39 -65q-20 -16 -48.5 -26t-66.5 -10q-42 0 -70.5 10.5t-47.5 28.5q-27 26 -36 58t-9 72v30q0 40 9 72t36 58q19 18 47.5 28.5t70.5 10.5q38 0 66.5 -10t48.5 -26q29 -27 39 -65t10 -78v-10zM572 635q8 14 17 17.5t28 3.5h73q23 0 29.5 -9.5 t-3.5 -26.5l-369 -608q-8 -14 -17 -17.5t-28 -3.5h-73q-23 0 -29.5 9.5t3.5 26.5zM181 445q0 -33 7.5 -42.5t19.5 -9.5h2q12 0 19.5 9.5t7.5 42.5v54q0 33 -7.5 42.5t-19.5 9.5h-2q-12 0 -19.5 -9.5t-7.5 -42.5v-54zM883 170q0 -40 -10 -78t-39 -65q-20 -16 -48.5 -26 t-66.5 -10q-42 0 -70.5 10.5t-47.5 28.5q-27 26 -36 58t-9 72v30q0 40 9 72t36 58q19 18 47.5 28.5t70.5 10.5q38 0 66.5 -10t48.5 -26q29 -27 39 -65t10 -78v-10zM691 148q0 -33 7.5 -42.5t19.5 -9.5h2q12 0 19.5 9.5t7.5 42.5v54q0 33 -7.5 42.5t-19.5 9.5h-2 q-12 0 -19.5 -9.5t-7.5 -42.5v-54zM1262 170q0 -40 -10 -78t-39 -65q-20 -16 -48.5 -26t-66.5 -10q-42 0 -70.5 10.5t-47.5 28.5q-27 26 -36 58t-9 72v30q0 40 9 72t36 58q19 18 47.5 28.5t70.5 10.5q38 0 66.5 -10t48.5 -26q29 -27 39 -65t10 -78v-10zM1070 148 q0 -33 7.5 -42.5t19.5 -9.5h2q12 0 19.5 9.5t7.5 42.5v54q0 33 -7.5 42.5t-19.5 9.5h-2q-12 0 -19.5 -9.5t-7.5 -42.5v-54z" />
<glyph unicode="&#x2039;" horiz-adv-x="392" d="M219 234l122 -104q20 -17 19 -28t-13 -25l-47 -52q-13 -14 -23 -14.5t-25 11.5l-197 157q-17 14 -22 23t-5 26v12q0 15 4 24.5t23 24.5l197 157q15 12 25.5 11.5t22.5 -14.5l47 -52q14 -16 13 -27t-19 -26z" />
<glyph unicode="&#x203a;" horiz-adv-x="392" d="M51 338q-18 15 -19 26t13 27l47 52q12 14 22.5 14.5t25.5 -11.5l197 -157q19 -15 23 -24.5t4 -24.5v-12q0 -17 -5 -26t-22 -23l-197 -157q-15 -12 -25 -11.5t-23 14.5l-47 52q-12 14 -13 25t19 28l122 104z" />
<glyph unicode="&#x2044;" horiz-adv-x="230" d="M218 630q8 14 18 20t33 6h75q16 0 21.5 -9t-3.5 -23l-350 -603q-8 -14 -18 -20t-33 -6h-75q-16 0 -21.5 9t3.5 23z" />
<glyph unicode="&#x20ac;" d="M294 192q6 -26 30.5 -43.5t72.5 -17.5h3q23 0 51 4.5t51 10.5q18 5 25.5 0.5t10.5 -18.5l8 -38q5 -26 6.5 -34t1.5 -12q0 -18 -20 -26q-12 -5 -29.5 -10t-37 -8.5t-40 -6t-37.5 -2.5h-14q-114 0 -179.5 49t-79.5 152h-69q-14 0 -19 5t-5 21v48q0 16 5 21t19 5h61v52h-61 q-14 0 -19 5t-5 21v48q0 16 5 21t19 5h68q17 103 81.5 157.5t168.5 54.5h8q45 0 90.5 -12t78.5 -29q17 -9 17 -21q0 -10 -7 -25l-27 -63q-10 -20 -32 -13q-28 10 -57 16.5t-62 6.5h-3q-41 0 -60.5 -19t-24.5 -53h155q14 0 19 -5t5 -21v-48q0 -16 -5 -21t-19 -5h-162v-52h162 q14 0 19 -5t5 -21v-48q0 -16 -5 -21t-19 -5h-148z" />
<glyph unicode="&#x2113;" horiz-adv-x="525" d="M285 349q24 20 34.5 49.5t10.5 71.5v7q0 26 -6.5 36t-15.5 10h-4q-9 0 -14 -7.5t-5 -28.5v-138zM285 164q0 -23 11 -30.5t26 -7.5h6q19 0 43 6.5t49 17.5q8 4 15 3.5t14 -13.5l19 -54q5 -14 7.5 -21.5t2.5 -12.5q0 -8 -16 -17q-34 -19 -77.5 -31.5t-95.5 -12.5h-7 q-47 0 -78.5 9.5t-51 26.5t-28 42t-8.5 55v7q-11 -6 -25 -12t-22 -9t-16 -3q-12 0 -19 19l-19 49q-4 11 -5 17.5t-1 11.5q0 10 12 15q22 10 48.5 24t46.5 25v209q0 94 43.5 134.5t141.5 40.5h16q91 0 136.5 -46.5t45.5 -124.5v-21q0 -78 -50.5 -141.5t-163.5 -117.5v-37z " />
<glyph unicode="&#x2116;" horiz-adv-x="977" d="M921 99q9 0 12 -4t3 -11v-71q0 -10 -5 -11.5t-10 -1.5h-248q-9 0 -12 3.5t-3 11.5v69q0 7 3 11t12 4h248zM224 337h-2v-303q0 -21 -7.5 -27.5t-27.5 -6.5h-84q-20 0 -28.5 6.5t-8.5 27.5v580q0 20 8 26.5t27 6.5h44q24 0 38 -5.5t26 -22.5l220 -328h2v322q0 21 8.5 27.5 t28.5 6.5h84q20 0 27.5 -6.5t7.5 -27.5v-580q0 -20 -8 -26.5t-27 -6.5h-44q-24 0 -38 5.5t-26 22.5zM835 349q0 27 -10 36.5t-29 9.5h-4q-19 0 -29 -9.5t-10 -36.5v-59q0 -27 10 -37.5t29 -10.5h4q19 0 29 10.5t10 37.5v59zM940 300q0 -78 -34 -112t-109 -34h-6 q-75 0 -109 34t-34 112v37q0 78 34 112t109 34h6q75 0 109 -34t34 -112v-37z" />
<glyph unicode="&#x2122;" horiz-adv-x="753" d="M483 365q-17 0 -23 4.5t-9 15.5q-8 32 -19 79t-19 89q-2 -49 -3.5 -97.5t-1.5 -100.5q0 -21 -27 -21h-46q-26 0 -26 21q2 75 6 143.5t9 121.5q2 17 8 22t21 5h97q20 0 26.5 -5.5t8.5 -18.5q5 -29 12 -66.5t15 -73.5q8 36 14.5 73.5t12.5 66.5q2 13 8 18.5t26 5.5h100 q17 0 23 -5t8 -22q5 -53 8 -121.5t5 -143.5q0 -21 -26 -21h-49q-27 0 -27 21q0 51 -1.5 98.5t-3.5 95.5q-4 -21 -9 -43.5t-10 -44t-9.5 -41.5t-8.5 -35q-3 -11 -8.5 -15.5t-24.5 -4.5h-57zM265 647q12 0 16.5 -4.5t4.5 -16.5v-42q0 -12 -4.5 -16.5t-18.5 -4.5h-57v-208 q0 -21 -28 -21h-48q-15 0 -21 5t-6 16v208h-56q-14 0 -18.5 4.5t-4.5 16.5v42q0 12 4.5 16.5t16.5 4.5h220z" />
<glyph unicode="&#x212e;" horiz-adv-x="820" d="M181 316q-5 0 -5 -5v-182q0 -10 9 -21q42 -45 100.5 -71t126.5 -26q72 0 133.5 29.5t103.5 79.5h54q-51 -58 -126.5 -93.5t-165.5 -35.5q-77 0 -144.5 26t-117.5 71t-79.5 105.5t-29.5 129.5t29.5 130t79.5 106t117.5 71t144.5 26q76 0 143 -26t117.5 -71t79.5 -106 t29 -130v-7h-599zM644 521q0 12 -10 22q-42 43 -99 68t-123 25q-68 0 -126 -25.5t-100 -70.5q-10 -8 -10 -23v-179q0 -5 5 -5h458q5 0 5 5v183z" />
<glyph unicode="&#x2190;" horiz-adv-x="670" d="M612 229q0 -16 -5.5 -22t-21.5 -6h-340l73 -74q14 -14 14 -23t-13 -22l-35 -35q-13 -13 -22 -11.5t-19 11.5l-175 176q-13 13 -17.5 21t-4.5 16t4.5 16t17.5 21l175 176q9 10 18.5 11.5t22.5 -11.5l35 -35q14 -14 13 -23t-14 -22l-73 -74h340q16 0 21.5 -6t5.5 -22v-62z " />
<glyph unicode="&#x2191;" horiz-adv-x="670" d="M304 -23q-16 0 -22 5.5t-6 21.5v340l-74 -73q-13 -13 -22 -14t-23 13l-35 35q-13 13 -11.5 22.5t11.5 18.5l176 175q13 13 21 17.5t16 4.5t16 -4.5t21 -17.5l176 -175q10 -10 11.5 -19t-11.5 -22l-35 -35q-13 -13 -22 -13t-23 14l-74 73v-340q0 -16 -6 -21.5t-22 -5.5 h-62z" />
<glyph unicode="&#x2192;" horiz-adv-x="670" d="M58 291q0 16 5.5 22t21.5 6h340l-73 74q-13 13 -14 22t13 23l35 35q13 13 22.5 11.5t18.5 -11.5l175 -176q13 -13 17.5 -21t4.5 -16t-4.5 -16t-17.5 -21l-175 -176q-10 -10 -19 -11.5t-22 11.5l-35 35q-13 13 -13 22t14 23l73 74h-340q-16 0 -21.5 6t-5.5 22v62z" />
<glyph unicode="&#x2193;" horiz-adv-x="670" d="M366 543q16 0 22 -5.5t6 -21.5v-340l74 73q14 14 23 14t22 -13l35 -35q13 -13 11.5 -22t-11.5 -19l-176 -175q-13 -13 -21 -17.5t-16 -4.5t-16 4.5t-21 17.5l-176 175q-10 9 -11.5 18.5t11.5 22.5l35 35q14 14 23 13t22 -14l74 -73v340q0 16 6 21.5t22 5.5h62z" />
<glyph unicode="&#x2202;" horiz-adv-x="583" d="M284 305q-40 0 -58 -20.5t-18 -62.5v-11q0 -49 17.5 -70t54.5 -21h8q20 0 34.5 6t23.5 20t13.5 38.5t4.5 60.5v49q-14 5 -29 8t-42 3h-9zM96 631q37 17 88 28t97 11h10q56 0 101.5 -12.5t77.5 -49t49.5 -102.5t17.5 -173v-13q0 -99 -14.5 -162.5t-45 -100.5t-78 -51.5 t-113.5 -14.5h-11q-112 0 -172.5 57t-60.5 175v10q0 110 54.5 159t156.5 49h11q27 0 53.5 -5t43.5 -11q0 61 -23 85.5t-69 24.5h-8q-26 0 -58.5 -8t-59.5 -19q-9 -4 -17 -4q-15 0 -21 20l-14 48q-7 21 -8.5 28.5t-1.5 12.5q0 11 15 18z" />
<glyph unicode="&#x220f;" horiz-adv-x="657" d="M552 -61q0 -21 -7.5 -28t-28.5 -7h-97q-20 0 -28 7t-8 28v570h-110v-570q0 -21 -7.5 -28t-28.5 -7h-97q-20 0 -28 7t-8 28v570h-62q-15 0 -20.5 5t-5.5 19v91q0 14 6 18.5t22 4.5h569q16 0 22 -4.5t6 -18.5v-91q0 -14 -5.5 -19t-20.5 -5h-63v-570z" />
<glyph unicode="&#x2211;" horiz-adv-x="495" d="M234 509l165 -181q18 -20 18 -37v-10q0 -11 -3.5 -19.5t-12.5 -18.5l-181 -201h211q17 0 24.5 -5.5t7.5 -24.5v-78q0 -20 -7.5 -25t-24.5 -5h-390q-17 0 -23.5 6.5t-6.5 23.5v56q0 14 4.5 24t18.5 25l178 197q15 17 21.5 25.5t6.5 15.5v3q0 8 -7.5 15.5t-19.5 20.5 l-170 183q-11 11 -13.5 19.5t-2.5 24.5v87q0 17 21 17h392q17 0 24.5 -6.5t7.5 -25.5v-74q0 -20 -7.5 -26t-24.5 -6h-206z" />
<glyph unicode="&#x2212;" d="M496 327q20 0 27.5 -9.5t7.5 -30.5v-62q0 -20 -7.5 -28t-27.5 -8h-412q-20 0 -27.5 8t-7.5 28v62q0 21 7.5 30.5t27.5 9.5h412z" />
<glyph unicode="&#x221a;" horiz-adv-x="692" d="M44 483q0 14 5 19t19 5h165q17 0 25 -5.5t12 -21.5q22 -89 44.5 -177.5t43.5 -163.5h7q41 130 80.5 260t68.5 239q3 11 8 14.5t16 3.5h137q21 0 15 -21q-19 -60 -42 -129t-49 -143t-54.5 -153t-57.5 -159q-12 -33 -26.5 -42t-42.5 -9h-126q-24 0 -36 13.5t-20 35.5 q-27 72 -54.5 155t-52.5 166h-59q-14 0 -20 4t-6 18v91z" />
<glyph unicode="&#x221e;" horiz-adv-x="907" d="M451 223q-36 -53 -84.5 -79.5t-105.5 -26.5q-42 0 -79 13.5t-64 40t-42.5 65t-15.5 89.5q0 46 16.5 83t44.5 62.5t63.5 39t73.5 13.5q29 0 54 -5t48.5 -17.5t46.5 -33.5t49 -52q42 59 89.5 83.5t107.5 24.5q39 0 74 -12.5t61.5 -37t42.5 -62t16 -86.5q0 -40 -12 -77.5 t-37 -66.5t-63 -46.5t-90 -17.5q-60 0 -106 25t-88 81zM372 320q-23 35 -45.5 51.5t-49.5 16.5q-30 0 -48.5 -18t-18.5 -48q0 -32 18.5 -51t48.5 -19q27 0 52.5 18t42.5 50zM532 318q20 -29 42 -47.5t50 -18.5q30 0 48.5 19t18.5 51q0 30 -18.5 48t-48.5 18 q-27 0 -49.5 -16.5t-42.5 -53.5z" />
<glyph unicode="&#x222b;" horiz-adv-x="358" d="M283 36q0 -66 -37.5 -103.5t-108.5 -37.5h-8q-29 0 -55 3t-44 8q-14 4 -18.5 9t-2.5 20l11 70q2 13 8.5 16.5t15.5 1.5t20.5 -4t22.5 -2h6q19 0 31 10t12 34q0 22 -2.5 46t-7.5 51q-22 112 -40 200.5t-18 154.5q0 70 38 106.5t113 36.5h7q36 0 63.5 -5.5t47.5 -12.5 t20 -24q0 -2 -1.5 -11t-4.5 -29l-7 -41q-2 -11 -8 -14.5t-20 1.5q-8 3 -21.5 5.5t-23.5 2.5h-6q-47 0 -47 -42q0 -23 2.5 -45t7.5 -45q22 -116 38.5 -206.5t16.5 -153.5z" />
<glyph unicode="&#x2248;" d="M58 335q-17 10 -17 21q0 10 5 20l9 18q28 53 72 75.5t86 22.5q23 0 42 -4.5t40 -15.5l26 -13q20 -11 34 -17.5t26 -6.5q19 0 39 42q5 11 19 11q4 -1 7.5 -2t8.5 -4l68 -38q16 -9 16 -21q0 -11 -4 -20t-9 -17q-52 -92 -135 -92q-21 0 -43.5 5t-48.5 18l-26 13 q-23 11 -34.5 16t-23.5 5q-16 0 -28.5 -11.5t-27.5 -37.5q-7 -11 -19 -11q-4 0 -10.5 2.5t-21.5 11.5zM58 87q-17 10 -17 21q0 10 5 20l9 18q28 53 72 75.5t86 22.5q23 0 42 -4.5t40 -15.5l26 -13q20 -11 34 -17.5t26 -6.5q19 0 39 42q5 11 19 11q4 -1 7.5 -2t8.5 -4l68 -38 q16 -9 16 -21q0 -11 -4 -20t-9 -17q-52 -92 -135 -92q-21 0 -43.5 5t-48.5 18l-26 13q-23 11 -34.5 16t-23.5 5q-16 0 -28.5 -11.5t-27.5 -37.5q-7 -11 -19 -11q-4 0 -10.5 2.5t-21.5 11.5z" />
<glyph unicode="&#x2260;" d="M312 450l34 76q8 18 17 25t32 7h51q25 0 25 -19q0 -3 -0.5 -6.5t-3 -9.5t-7 -16.5t-11.5 -26.5l-14 -30h61q20 0 27.5 -9.5t7.5 -30.5v-62q0 -20 -7.5 -28t-27.5 -8h-122l-48 -108h170q20 0 27.5 -9.5t7.5 -30.5v-62q0 -20 -7.5 -28t-27.5 -8h-231l-30 -69 q-8 -18 -17 -25t-32 -7h-51q-25 0 -25 19q0 7 4.5 18.5t17.5 40.5l10 23h-58q-20 0 -27.5 8t-7.5 28v62q0 21 7.5 30.5t27.5 9.5h119l48 108h-167q-20 0 -27.5 8t-7.5 28v62q0 21 7.5 30.5t27.5 9.5h228z" />
<glyph unicode="&#x2264;" d="M496 138q20 0 27.5 -9.5t7.5 -30.5v-62q0 -20 -7.5 -28t-27.5 -8h-412q-20 0 -27.5 8t-7.5 28v62q0 21 7.5 30.5t27.5 9.5h412zM502 319q25 -13 25 -27q0 -6 -3.5 -14.5t-18.5 -34.5l-20 -36q-10 -19 -24 -19q-10 0 -20 6l-365 197q-14 8 -19 15.5t-5 25.5v38 q0 18 5 25.5t19 15.5l365 197q12 6 20 6q14 0 24 -19l23 -41q12 -22 15.5 -29.5t3.5 -12.5q0 -16 -25 -29l-250 -132z" />
<glyph unicode="&#x2265;" d="M328 451l-250 132q-25 13 -25 29q0 5 3.5 12.5t15.5 29.5l23 41q10 19 24 19q8 0 20 -6l365 -197q14 -8 19 -15.5t5 -25.5v-38q0 -18 -5 -25.5t-19 -15.5l-365 -197q-11 -6 -20 -6q-14 0 -24 19l-20 36q-15 26 -18.5 34.5t-3.5 14.5q0 14 25 27zM496 138q20 0 27.5 -9.5 t7.5 -30.5v-62q0 -20 -7.5 -28t-27.5 -8h-412q-20 0 -27.5 8t-7.5 28v62q0 21 7.5 30.5t27.5 9.5h412z" />
<glyph unicode="&#x25ca;" d="M312 663q18 0 29 -7t22 -24l158 -253q6 -10 10 -19.5t4 -20.5v-11q0 -11 -4 -20.5t-10 -20.5l-159 -265q-11 -18 -24 -24.5t-28 -6.5h-41q-15 0 -28 6.5t-24 24.5l-159 265q-6 11 -10 20.5t-4 20.5v11q0 11 4 20.5t10 19.5l158 253q11 17 22.5 24t28.5 7h45zM193 325 l97 -164l1.5 3t10.5 19t28.5 49t55.5 93l-96 159z" />
<glyph unicode="&#x2713;" horiz-adv-x="742" d="M281 7q-14 -14 -21.5 -19t-15.5 -5q-16 0 -33 17l-160 160q-15 15 -15 23q0 5 2 9t10 12l48 48q12 12 21 12q8 0 19 -11l111 -111l358 359q14 14 23 14q6 0 10.5 -2t11.5 -9l41 -41q8 -8 10.5 -12.5t2.5 -10.5q0 -10 -14 -24z" />
<glyph unicode="&#xe000;" horiz-adv-x="490" d="M0 490h490v-490h-490v490z" />
<glyph unicode="&#xf8ff;" horiz-adv-x="583" d="M228 199v64h193v63h-193v192h255v-64h-191v-64h191v-191h-255zM164 583v-519h72v-64h-136v647h383v-64h-319z" />
<glyph horiz-adv-x="419" d="M331 779q11 -7 11 -18q0 -9 -8 -21l-26 -38q-7 -9 -11.5 -13t-10.5 -4q-11 0 -21 5l-169 89q-19 10 -19 24q0 10 7 21l38 62q3 5 7.5 10t11.5 5q8 0 19 -7z" />
<glyph horiz-adv-x="419" d="M259 894q11 7 19 7q7 0 11.5 -5t7.5 -10l38 -62q7 -11 7 -21q0 -14 -19 -24l-169 -89q-10 -5 -21 -5q-6 0 -10.5 4t-11.5 13l-26 38q-8 12 -8 21q0 11 11 18z" />
<glyph horiz-adv-x="395" d="M118 860q28 0 46.5 -18t18.5 -47v-8q0 -29 -18.5 -47t-46.5 -18h-6q-28 0 -46.5 18t-18.5 47v8q0 29 18.5 47t46.5 18h6zM305 860q28 0 46.5 -18t18.5 -47v-8q0 -29 -18.5 -47t-46.5 -18h-6q-28 0 -46.5 18t-18.5 47v8q0 29 18.5 47t46.5 18h6z" />
<glyph horiz-adv-x="369" d="M116 704q-10 -11 -22 -11q-11 0 -21 9l-36 30q-7 7 -7 13q0 9 8 17l88 102q8 8 14 10.5t14 2.5h61q8 0 14 -2.5t14 -10.5l88 -102q8 -8 8 -17q0 -6 -7 -13l-36 -30q-11 -9 -21 -9q-12 0 -22 11l-66 71h-5z" />
<glyph horiz-adv-x="345" d="M6 727q-8 5 -8 12q0 6 3 14q20 48 50 71.5t62 23.5q20 0 34.5 -5.5t28.5 -14.5l19 -12q23 -14 35 -14t22 7.5t21 24.5q5 8 13 8q5 0 13 -5l38 -26q9 -8 9 -14t-4 -13.5t-8 -12.5q-46 -69 -107 -69q-30 0 -56 16l-20 13q-20 13 -34 13q-9 0 -18.5 -6.5t-23.5 -28.5 q-6 -9 -14 -9q-5 0 -12 3z" />
<glyph horiz-adv-x="396" d="M90 727q-15 0 -21 5.5t-6 18.5v50q0 13 6 18.5t21 5.5h216q15 0 21 -5.5t6 -18.5v-50q0 -13 -6 -18.5t-21 -5.5h-216z" />
<glyph horiz-adv-x="368" d="M186 801q41 0 68 59q5 11 15 11q5 0 13 -3l49 -19q13 -4 13 -16q0 -8 -3.5 -15.5t-5.5 -12.5q-22 -46 -58 -73.5t-90 -27.5h-6q-54 0 -90 27.5t-58 73.5q-2 5 -5.5 12.5t-3.5 15.5q0 12 13 16l49 19q7 3 13 3q10 0 15 -11q27 -59 68 -59h4z" />
<glyph horiz-adv-x="496" d="M175 791q0 32 21.5 52t51.5 20t51.5 -20t21.5 -52t-21.5 -52t-51.5 -20t-51.5 20t-21.5 52z" />
<glyph horiz-adv-x="450" d="M123 781q0 22 8 41t22 32.5t32.5 21t39.5 7.5q44 0 73 -28.5t29 -73.5t-29 -73.5t-73 -28.5q-21 0 -39.5 7.5t-32.5 21t-22 32.5t-8 41zM196 781q0 -14 9 -21.5t20 -7.5t20 7.5t9 21.5t-9 21.5t-20 7.5t-20 -7.5t-9 -21.5z" />
<glyph horiz-adv-x="526" d="M166 921q5 5 9.5 6t9.5 1q10 0 17 -11l47 -63q11 -14 10 -22q0 -7 -14 -17l-157 -107q-6 -4 -10 -6t-9 -2q-10 2 -17 11l-37 43q-5 7 -6.5 11.5t-1.5 7.5q-1 5 2 8.5t11 10.5zM426 921q5 5 9.5 6t9.5 1q10 0 17 -11l47 -63q11 -14 10 -22q0 -7 -14 -17l-157 -107 q-6 -4 -10 -6t-9 -2q-10 2 -17 11l-37 43q-5 7 -6.5 11.5t-1.5 7.5q-1 5 2 8.5t11 10.5z" />
<glyph horiz-adv-x="369" d="M182 802h5l66 71q10 11 22 11q10 0 21 -9l36 -30q7 -7 7 -13q0 -9 -8 -17l-88 -102q-8 -8 -14.5 -10.5t-13.5 -2.5h-61q-7 0 -13.5 2.5t-14.5 10.5l-88 102q-8 8 -8 17q0 6 7 13l36 30q10 9 21 9q12 0 22 -11z" />
</font>
</defs>
</svg>
