<?xml version="1.0" standalone="no"?>
<!DOCTYPE svg PUBLIC "-//W3C//DTD SVG 1.1//EN" "http://www.w3.org/Graphics/SVG/1.1/DTD/svg11.dtd" >
<svg xmlns="http://www.w3.org/2000/svg">
<metadata></metadata>
<defs>
<font id="eewlight_italic" horiz-adv-x="471" >
<font-face units-per-em="1000" ascent="750" descent="-250" />
<missing-glyph horiz-adv-x="224" />
<glyph unicode="fi" horiz-adv-x="467" d="M92 108q-10 -53 -18 -92.5t-16 -71t-17 -58.5t-21 -55q-3 -8 -12 -8h-25q-10 0 -6 9q12 29 21 56.5t17 58t15.5 65.5t15.5 79l64 359h-60q-8 0 -6 8l3 16q3 8 10 9l62 9l6 28q10 47 26.5 79t40.5 51.5t55 27.5t71 8q32 0 58.5 -4.5t43.5 -9.5q9 -3 7 -11l-6 -21 q-2 -7 -12 -5q-19 5 -42 8.5t-49 3.5q-58 0 -95 -25.5t-52 -97.5l-7 -34h255q7 0 6 -7l-92 -476q-1 -7 -9 -7h-29q-7 0 -6 7l85 443h-219z" />
<glyph unicode="fl" horiz-adv-x="488" d="M92 108q-10 -53 -18 -92.5t-16 -71t-17 -58.5t-21 -55q-3 -8 -12 -8h-25q-10 0 -6 9q12 29 21 56.5t17 58t15.5 65.5t15.5 79l64 359h-60q-8 0 -6 8l3 16q3 8 10 9l62 9l6 28q10 47 23.5 79t33.5 51.5t49 27.5t71 8q27 0 56 -4.5t44 -9.5l30 5q7 0 6 -7l-108 -560 q-3 -14 -4 -25.5t-1 -16.5q0 -15 7.5 -22.5t28.5 -7.5h46q7 0 6 -7l-4 -24q-1 -7 -12 -7h-42q-41 0 -57.5 13.5t-16.5 45.5q0 21 6 53l101 522q-14 5 -40 9t-46 4q-29 0 -50 -4.5t-36.5 -18t-26 -37.5t-18.5 -63l-7 -34h111q7 0 6 -7l-5 -27q-2 -6 -8 -6h-113z" />
<glyph unicode="&#xd;" horiz-adv-x="224" />
<glyph unicode=" "  horiz-adv-x="224" />
<glyph unicode="&#x09;" horiz-adv-x="224" />
<glyph unicode="&#xa0;" horiz-adv-x="224" />
<glyph unicode="!" horiz-adv-x="219" d="M39 -9q-26 0 -26 22q0 3 1 10.5t4 24.5q4 20 13.5 28t25.5 8h9q27 0 27 -22q0 -9 -6 -36q-5 -20 -13.5 -27.5t-26.5 -7.5h-8zM146 635q1 8 9 8h29q10 0 9 -8l-102 -495q-1 -7 -9 -7h-20q-10 0 -8 8z" />
<glyph unicode="&#x22;" horiz-adv-x="276" d="M66 452zM77 452q-11 0 -8 12l34 210q2 9 5.5 11.5t11.5 2.5h23q8 0 11.5 -2.5t1.5 -11.5l-48 -210q-3 -12 -14 -12h-17zM225 452q-11 0 -8 12l34 210q2 9 5.5 11.5t11.5 2.5h23q8 0 11.5 -2.5t1.5 -11.5l-48 -210q-3 -12 -14 -12h-17z" />
<glyph unicode="#" horiz-adv-x="683" d="M429 237h132q13 0 9 -11l-8 -20q-4 -9 -15 -9h-134l-77 -187q-4 -10 -12 -10h-27q-9 0 -6 10l77 187h-166l-77 -187q-4 -10 -12 -10h-27q-9 0 -6 10l77 187h-131q-13 0 -9 11l8 20q4 9 15 9h133l72 176h-130q-13 0 -9 11l8 20q4 9 15 9h133l75 184q2 6 5 7.5t8 1.5h26 q10 0 6 -10l-75 -183h166l75 184q2 6 5 7.5t8 1.5h26q10 0 6 -10l-75 -183h132q13 0 9 -11l-8 -20q-4 -9 -15 -9h-135zM456 413h-166l-72 -176h166z" />
<glyph unicode="$" horiz-adv-x="518" d="M224 43q34 3 58 12.5t40 23.5t25 32.5t14 38.5q5 18 7.5 35t2.5 26q0 42 -22.5 64t-73.5 32zM147 451q0 -32 21.5 -57t78.5 -36l47 245q-54 1 -91 -20t-48 -69q-8 -34 -8 -63zM178 3q-38 2 -81.5 10.5t-72.5 22.5q-10 4 -6 14l7 19q2 4 4.5 6.5t9.5 -0.5q32 -12 70 -20.5 t76 -9.5l53 270l-42 12q-47 14 -71.5 45t-24.5 72q0 16 2 35.5t7 40.5q16 64 64.5 94t128.5 31l18 92q2 10 14 10h13q14 0 12 -10l-18 -92q14 -1 30.5 -3t32.5 -5t30.5 -6.5t24.5 -6.5q8 -3 9.5 -6t-0.5 -9l-6 -18q-2 -7 -5 -8t-11 1q-23 7 -53.5 12t-59.5 6l-49 -252 q17 -5 31 -8.5t22 -6.5q45 -15 64 -44.5t19 -68.5q0 -9 -1.5 -27t-6.5 -38q-9 -40 -24 -68t-38.5 -46.5t-56.5 -28t-76 -11.5l-20 -99q-3 -10 -14 -10h-13q-15 0 -12 10z" />
<glyph unicode="%" horiz-adv-x="757" d="M156 -2q-4 -5 -6.5 -6t-8.5 -1h-27q-10 0 -4 8l483 650q5 7 15 7h27q10 0 4 -8zM213 656q45 0 70 -20.5t25 -68.5q0 -20 -3.5 -48.5t-8.5 -53.5q-13 -61 -27 -90t-31 -45q-33 -29 -88 -29q-43 0 -68.5 20.5t-25.5 68.5q0 20 4 48t9 54q11 59 25 89t31 46q33 29 88 29z M207 622q-20 0 -35.5 -7t-27.5 -22.5t-21 -41.5t-16 -64q-4 -23 -8 -48t-4 -44q0 -34 15.5 -47t44.5 -13q21 0 36.5 6.5t28 22t21.5 41.5t17 65q5 23 8 48t3 44q0 32 -14.5 46t-47.5 14zM598 346q45 0 70 -20.5t25 -68.5q0 -20 -3.5 -48.5t-8.5 -53.5q-13 -61 -27 -90 t-31 -45q-33 -29 -88 -29q-43 0 -68.5 20.5t-25.5 68.5q0 20 4 48t9 54q11 59 25 89t31 46q33 29 88 29zM592 312q-20 0 -35.5 -7t-27.5 -22.5t-21 -41.5t-16 -64q-4 -23 -8 -48t-4 -44q0 -34 15.5 -47t44.5 -13q21 0 36.5 6.5t28 22t21.5 41.5t17 65q5 23 8 48t3 44 q0 32 -14.5 46t-47.5 14z" />
<glyph unicode="&#x26;" horiz-adv-x="602" d="M516 314q-6 -26 -13 -53t-15.5 -52t-17 -47.5t-17.5 -40.5l76 -91q6 -7 -1 -13l-22 -17q-7 -5 -13 2l-66 80q-37 -47 -86.5 -69t-121.5 -22h-16q-84 0 -125 35t-41 110q0 47 13 83.5t34.5 64.5t50.5 48t62 34q-22 32 -32.5 60.5t-10.5 60.5q0 78 46.5 123.5t125.5 45.5 q63 0 97.5 -32t34.5 -92q0 -76 -39 -127t-123 -93l129 -158q15 35 28.5 77.5t21.5 83.5q2 6 4.5 7.5t7.5 1.5h20q12 0 9 -10zM222 28q56 0 102.5 19.5t76.5 66.5l-184 224q-65 -29 -101 -77t-36 -122q0 -59 31 -85t94 -26h17zM274 339q37 19 63.5 38.5t43.5 42t24.5 49 t7.5 58.5q0 45 -23.5 68t-65.5 23q-59 0 -93 -34t-34 -92q0 -35 17 -67t52 -76z" />
<glyph unicode="'" horiz-adv-x="128" d="M77 452q-11 0 -8 12l34 210q2 9 5.5 11.5t11.5 2.5h23q8 0 11.5 -2.5t1.5 -11.5l-48 -210q-3 -12 -14 -12h-17z" />
<glyph unicode="(" horiz-adv-x="277" d="M46 168q0 72 16.5 142.5t47 137.5t73.5 129.5t96 118.5q5 5 7.5 5t6.5 -3l13 -11q6 -6 1 -13q-46 -50 -85 -108t-67.5 -122t-44.5 -133t-16 -141q0 -36 3 -69t9.5 -66t17.5 -67t27 -71q2 -3 1.5 -6.5t-6.5 -6.5l-13 -6q-10 -4 -14 3q-34 71 -53.5 140t-19.5 147z" />
<glyph unicode=")" horiz-adv-x="277" d="M211 409q0 -72 -16.5 -142.5t-47 -137.5t-73.5 -129.5t-96 -118.5q-5 -5 -7.5 -5t-6.5 3l-13 11q-6 6 -1 13q46 50 85 108t67.5 122t44.5 133t16 141q0 71 -13 134.5t-44 138.5q-2 3 -1.5 6.5t6.5 6.5l13 6q10 4 14 -3q34 -71 53.5 -140t19.5 -147z" />
<glyph unicode="*" horiz-adv-x="338" d="M208 547l-80 -103q-9 -13 -20 -5l-24 17q-10 7 3 18l104 94l-102 25q-14 3 -7 15l18 33q7 11 17 4l87 -52l7 116q0 9 3.5 12t11.5 3h32q8 0 10 -3t-1 -12l-37 -117l106 51q15 7 16 -6l4 -29q1 -12 -13 -15l-112 -29l67 -89q9 -10 -3 -18l-31 -18q-13 -7 -18 5z" />
<glyph unicode="+" horiz-adv-x="512" d="M218 240h-174q-7 0 -6 7l6 29q1 7 8 7h174l34 174q1 7 8 7h28q8 0 7 -7l-34 -174h174q7 0 6 -7l-6 -29q-1 -7 -8 -7h-174l-34 -175q-1 -7 -8 -7h-28q-8 0 -7 7z" />
<glyph unicode="," horiz-adv-x="190" d="M55 87q33 0 33 -26q0 -5 -1 -12t-5 -24q-9 -38 -28.5 -75.5t-52.5 -75.5q-6 -7 -12 -3l-14 10q-7 5 0 12q17 20 29.5 39.5t20.5 36.5q6 13 -4 18l-9 4q-15 6 -15 19q0 6 1 14.5t6 29.5q7 33 38 33h13z" />
<glyph unicode="-" horiz-adv-x="275" d="M23 243q-7 0 -6 7l6 26q1 7 8 7h191q7 0 6 -7l-6 -26q-1 -7 -8 -7h-191z" />
<glyph unicode="." horiz-adv-x="190" d="M74 24q-4 -17 -12.5 -25t-28.5 -8h-10q-29 0 -29 20q0 5 1 12t5 28q6 33 40 33h11q30 0 30 -20q0 -3 -1 -10.5t-6 -29.5z" />
<glyph unicode="/" horiz-adv-x="318" d="M14 -17q-4 -9 -13 -9h-27q-10 0 -6 10l344 697q4 9 12 9h28q11 0 6 -10z" />
<glyph unicode="0" horiz-adv-x="518" d="M90 170q0 -67 23.5 -103.5t87.5 -36.5q38 0 68 13t58 46q16 19 30 50t24.5 67t18.5 75t13.5 76t8 68.5t2.5 52.5q0 67 -23.5 103t-87.5 36q-38 0 -68 -12.5t-58 -45.5q-17 -20 -30.5 -50.5t-24 -66.5t-18.5 -75t-13.5 -76t-8 -68.5t-2.5 -52.5zM472 483q0 -36 -6 -84.5 t-15 -99.5q-16 -88 -40 -147t-56 -95t-72 -51t-88 -15q-74 0 -113.5 41t-39.5 133q0 36 6 84.5t15 99.5q16 88 40 147t56 94.5t72 50.5t88 15q74 0 113.5 -40.5t39.5 -132.5z" />
<glyph unicode="1" horiz-adv-x="518" d="M36 0q-10 0 -9 10l3 21q1 10 12 10h152l108 560h-5l-136 -62q-10 -5 -13 3l-8 21q-4 9 4 13l141 64q8 4 14.5 5.5t15.5 1.5h30q12 0 9 -11l-114 -595h152q10 0 9 -10l-3 -21q-1 -10 -12 -10h-350z" />
<glyph unicode="2" horiz-adv-x="518" d="M360 41q10 0 9 -10l-3 -21q-1 -10 -12 -10h-315q-9 0 -13 3.5t-2 14.5l10 62q9 54 22 91.5t33.5 63.5t49 44t68.5 33l70 27q36 14 64 29t47.5 35.5t29.5 49t10 70.5q0 48 -26.5 70t-83.5 22q-35 0 -74.5 -7t-71.5 -18q-11 -4 -14 7l-4 19q-3 9 8 13q79 27 160 27 q154 0 154 -127q0 -48 -10 -82.5t-32 -61t-57.5 -47t-86.5 -40.5l-67 -26q-33 -12 -57 -27.5t-41 -37t-27.5 -51t-17.5 -71.5l-7 -44h287z" />
<glyph unicode="3" horiz-adv-x="518" d="M148 633q29 10 68.5 16.5t74.5 6.5q81 0 117.5 -31.5t36.5 -92.5q0 -46 -12.5 -79t-32.5 -55.5t-45.5 -35.5t-51.5 -18v-3q51 -7 76.5 -42t25.5 -87q0 -112 -59.5 -166.5t-163.5 -54.5q-43 0 -81.5 8.5t-64.5 18.5q-10 4 -7 13l7 20q3 9 12 6q32 -11 66 -18t67 -7 q39 0 71 9.5t55.5 31t36.5 55.5t13 82q0 60 -38.5 87t-119.5 27h-27q-10 0 -8 8l5 26q1 7 14 7h28q93 0 140 42t47 117q0 49 -26.5 70t-87.5 21q-28 0 -63.5 -6.5t-61.5 -14.5q-9 -3 -11.5 -0.5t-3.5 7.5l-3 19q-1 5 0 8t7 5z" />
<glyph unicode="4" horiz-adv-x="518" d="M321 213l76 394h-6l-313 -394h243zM313 172h-280q-8 0 -10.5 2t-1.5 9l1 12q1 9 5.5 17t18.5 25l308 389q9 11 16.5 16t22.5 5h28q15 0 20.5 -6t2.5 -23l-77 -405h73q10 0 9 -8l-4 -25q-1 -8 -11 -8h-75l-30 -163q-1 -9 -11 -9h-28q-11 0 -9 9z" />
<glyph unicode="5" horiz-adv-x="518" d="M223 604q-12 0 -15 -12l-59 -220q28 14 60 22t73 8q144 0 144 -141q0 -55 -14.5 -104t-45.5 -86t-79 -58.5t-115 -21.5q-35 0 -75.5 9.5t-73.5 25.5q-9 5 -5 14l6 16q5 11 17 6q35 -14 68 -22t68 -8q41 0 77.5 13.5t64 41.5t43.5 70t16 99q0 59 -27.5 82.5t-75.5 23.5 q-39 0 -72 -9t-64 -23q-8 -4 -13 -5.5t-10 0.5l-13 6q-7 3 -4 13l75 287q3 16 20 16h255q15 0 12 -12l-4 -21q-3 -10 -16 -10h-218z" />
<glyph unicode="6" horiz-adv-x="518" d="M287 361q-45 0 -91.5 -19t-78.5 -48q-6 -31 -11 -69.5t-5 -71.5q0 -60 26 -90.5t88 -30.5q47 0 80 19t54 50.5t31 72t10 82.5q0 54 -23.5 79.5t-79.5 25.5zM468 638q11 -4 7 -15l-5 -14q-2 -6 -5.5 -7.5t-11.5 0.5q-18 5 -42.5 9.5t-52.5 4.5q-59 0 -98.5 -22.5t-66 -60 t-42 -86.5t-25.5 -102q32 26 77 41.5t92 15.5q72 0 107 -34.5t35 -100.5q0 -63 -15 -114t-44 -87t-71 -55.5t-96 -19.5q-81 0 -119 42.5t-38 117.5q0 18 2.5 45t7 57.5t10 62.5t11.5 61q13 61 34.5 112.5t54.5 88.5t78.5 57.5t105.5 20.5q34 0 62.5 -5t47.5 -13z" />
<glyph unicode="7" horiz-adv-x="518" d="M490 647q19 0 16 -14l-2 -14q-2 -9 -6.5 -18t-20.5 -32l-376 -558q-4 -6 -8.5 -8.5t-13.5 -2.5h-27q-13 0 -5 13l402 593h-318q-12 0 -9 10l5 22q1 9 13 9h350z" />
<glyph unicode="8" horiz-adv-x="518" d="M114 472q0 41 14.5 75t41 58t63 37.5t81.5 13.5q40 0 69 -10.5t48 -28.5t28 -42.5t9 -52.5q0 -64 -35.5 -115.5t-97.5 -81.5q50 -23 68.5 -55.5t18.5 -69.5q0 -97 -57 -153t-160 -56q-85 0 -132 40.5t-47 115.5q0 67 37.5 121.5t108.5 83.5q-31 24 -44.5 52t-13.5 68z M75 151q0 -61 36.5 -90t99.5 -29q77 0 119.5 44.5t42.5 114.5q0 19 -4 34t-15.5 28.5t-31 26t-49.5 26.5l-60 27q-66 -28 -102 -72.5t-36 -109.5zM296 344q54 26 89.5 71t35.5 101q0 51 -28.5 75t-82.5 24q-65 0 -106 -36.5t-41 -100.5q0 -38 16 -63.5t63 -46.5z" />
<glyph unicode="9" horiz-adv-x="518" d="M236 286q45 0 91.5 19t78.5 48q6 31 11 69.5t5 71.5q0 60 -26 90.5t-88 30.5q-47 0 -80 -19.5t-54 -51t-31 -71.5t-10 -82q0 -54 23.5 -79.5t79.5 -25.5zM55 9q-11 4 -7 15l5 14q2 6 5.5 7.5t11.5 -0.5q18 -5 42.5 -9.5t52.5 -4.5q59 0 98.5 22.5t66 60t41.5 86.5t26 102 q-32 -26 -77 -41.5t-92 -15.5q-72 0 -107 34.5t-35 100.5q0 63 15 114t44 87t71 55.5t96 19.5q81 0 119 -42.5t38 -117.5q0 -18 -2.5 -45t-7 -57.5t-10 -62.5t-11.5 -61q-13 -61 -34.5 -112.5t-54.5 -88.5t-78.5 -57.5t-105.5 -20.5q-34 0 -62.5 5t-47.5 13z" />
<glyph unicode=":" horiz-adv-x="185" d="M0 0zM76 24q-4 -17 -12.5 -25t-28.5 -8h-10q-29 0 -29 20q0 5 1 12t5 28q6 33 40 33h11q30 0 30 -20q0 -3 -1 -10.5t-6 -29.5zM147 405q-4 -17 -12.5 -25t-28.5 -8h-10q-29 0 -29 20q0 5 1 12t5 28q6 33 40 33h11q30 0 30 -20q0 -3 -1 -10.5t-6 -29.5z" />
<glyph unicode=";" horiz-adv-x="185" d="M0 0zM45 87q33 0 33 -26q0 -5 -1 -12t-5 -24q-9 -38 -28.5 -75.5t-52.5 -75.5q-6 -7 -12 -3l-14 10q-7 5 0 12q17 20 29.5 39.5t20.5 36.5q6 13 -4 18l-9 4q-15 6 -15 19q0 6 1 14.5t6 29.5q7 33 38 33h13zM145 405q-4 -17 -12.5 -25t-28.5 -8h-10q-29 0 -29 20q0 5 1 12 t5 28q6 33 40 33h11q30 0 30 -20q0 -3 -1 -10.5t-6 -29.5z" />
<glyph unicode="&#x3c;" horiz-adv-x="512" d="M124 257l232 -146q9 -6 3 -14l-14 -19q-5 -6 -13 -1l-264 164q-8 5 -8 10q0 3 4 19q2 5 3.5 7t6.5 4l330 166q11 5 15 -3l10 -20q4 -8 -6 -13z" />
<glyph unicode="=" horiz-adv-x="512" d="M62 329q-7 0 -6 7l6 29q1 7 8 7h391q7 0 6 -7l-6 -29q-1 -7 -8 -7h-391zM28 151q-7 0 -6 7l6 29q1 7 8 7h391q7 0 6 -7l-6 -29q-1 -7 -8 -7h-391z" />
<glyph unicode="&#x3e;" horiz-adv-x="512" d="M377 267l-232 146q-9 6 -3 14l14 19q5 6 13 1l264 -164q8 -5 8 -10q0 -3 -4 -19q-2 -5 -3.5 -7t-6.5 -4l-330 -166q-11 -5 -15 3l-10 20q-4 9 6 13z" />
<glyph unicode="?" horiz-adv-x="441" d="M104 133q-11 0 -10 10q7 44 17 76.5t25 57.5t37 44t52 36l40 22q57 30 83.5 62t26.5 84q0 46 -28.5 68t-92.5 22q-32 0 -68.5 -7t-73.5 -18q-10 -3 -13 6l-5 19q-3 10 8 14q37 13 76 20t77 7q167 0 167 -125q0 -35 -8.5 -62t-25.5 -48.5t-41.5 -39.5t-57.5 -35l-39 -21 q-28 -15 -47.5 -32t-33 -38t-22 -48.5t-13.5 -63.5q-1 -6 -3 -8t-10 -2h-17zM86 -9q-26 0 -26 22q0 3 1 10.5t4 24.5q4 20 13.5 28t25.5 8h9q27 0 27 -22q0 -9 -6 -36q-5 -20 -13.5 -27.5t-26.5 -7.5h-8z" />
<glyph unicode="@" horiz-adv-x="787" d="M456 209q-15 -24 -43.5 -43t-65.5 -19q-51 0 -75.5 32t-24.5 82q0 34 9.5 75t23.5 73q17 40 47.5 65t78.5 25q32 0 53.5 -13.5t31.5 -36.5l8 26q2 7 5 8.5t10 1.5h13q7 0 10 -2t1 -10l-34 -170q-5 -21 -7.5 -38t-2.5 -27q0 -27 15.5 -43t50.5 -16q39 0 64.5 21.5t41 54.5 t22 71.5t6.5 73.5q0 52 -17.5 95.5t-51.5 74.5t-82.5 48t-110.5 17q-74 0 -135.5 -25.5t-106 -72t-69 -112t-24.5 -144.5q0 -68 21 -118t59 -83.5t92.5 -50t122.5 -16.5q54 0 104.5 10.5t88.5 26.5q6 2 9 1.5t5 -6.5l4 -14q3 -11 -8 -16q-41 -19 -98.5 -30.5t-114.5 -11.5 q-80 0 -141.5 21t-103.5 60.5t-63.5 95.5t-21.5 127q0 86 27.5 159t77.5 126.5t121.5 83.5t158.5 30q66 0 121 -18.5t94.5 -54t62 -87t22.5 -118.5q0 -38 -9.5 -83t-31 -83.5t-56 -64.5t-84.5 -26q-45 0 -70.5 20.5t-29.5 47.5zM470 344q6 30 6 50q0 29 -17 48t-53 19 q-32 0 -51.5 -16t-33.5 -45q-16 -34 -23.5 -71.5t-7.5 -68.5q0 -74 66 -74q41 0 68 31.5t36 77.5z" />
<glyph unicode="A" horiz-adv-x="552" d="M38 11q-2 -5 -5.5 -8t-11.5 -3h-23q-13 0 -7 11q80 177 155.5 330.5t150.5 289.5q5 10 11.5 13t16.5 3h27q8 0 14.5 -3.5t8.5 -14.5q10 -56 20.5 -128t19.5 -153t17 -166.5t14 -169.5q1 -12 -11 -12h-22q-13 0 -13 12q-3 50 -6.5 101t-8.5 102h-254zM327 607 q-48 -91 -91 -176.5t-86 -175.5h231q-10 102 -21 193t-22 159h-11z" />
<glyph unicode="B" horiz-adv-x="488" d="M274 656q92 0 135.5 -29t43.5 -92q0 -33 -8 -63.5t-24.5 -56t-42 -44.5t-59.5 -28v-2q51 -5 82 -31.5t31 -84.5q0 -23 -3.5 -48t-12.5 -49t-24 -45.5t-37 -37.5q-35 -25 -80.5 -35t-108.5 -10q-14 0 -31.5 0.5t-36.5 2t-37 3t-33 4.5q-9 2 -11.5 6t-0.5 12l116 600 q2 9 6 12.5t15 5.5q23 5 55.5 7.5t65.5 2.5zM68 61q-2 -8 0.5 -10.5t9.5 -4.5q20 -4 44 -5t52 -1q45 0 82.5 7.5t67.5 30.5t44.5 63t14.5 79q1 55 -38 76t-128 21h-99zM274 616q-24 0 -47.5 -1.5t-39.5 -4.5q-6 -2 -9.5 -4t-5.5 -10l-46 -238h65q45 0 81 6.5t66 25.5 q34 21 51 58t17 84q0 48 -34 66t-98 18z" />
<glyph unicode="C" horiz-adv-x="492" d="M484 582q-4 -7 -8 -7t-9 3q-64 37 -135 37q-42 0 -75 -10t-59 -38t-45 -76.5t-33 -125.5q-13 -71 -20.5 -123t-7.5 -81q0 -35 7.5 -59.5t24.5 -40t45.5 -22.5t69.5 -7q31 0 70.5 7t74.5 21q6 2 9.5 1t5.5 -9l4 -17q1 -5 0 -7.5t-7 -4.5q-36 -16 -80.5 -24t-82.5 -8 q-102 0 -146.5 38.5t-44.5 124.5q0 35 9.5 95t24.5 141q15 79 38 130.5t55.5 81.5t73 42t90.5 12q44 0 85 -12.5t70 -30.5q10 -6 5 -16z" />
<glyph unicode="D" horiz-adv-x="560" d="M276 612q-26 0 -48.5 -1.5t-36.5 -3.5q-8 -2 -13 -5.5t-7 -14.5l-106 -536q-3 -11 7 -11h60q71 0 122.5 12t88.5 40t61.5 74.5t41.5 115.5q11 48 18 93t7 74q0 47 -11.5 78.5t-35 50t-60.5 26.5t-88 8zM32 0q-12 0 -16.5 3.5t-2.5 14.5l119 603q2 10 6 14.5t15 6.5 q26 5 60.5 7.5t65.5 2.5q56 0 100.5 -9.5t75 -32t47 -61.5t16.5 -97q0 -26 -6 -74t-20 -104q-21 -89 -56 -142.5t-83 -83t-107.5 -39t-130.5 -9.5h-83z" />
<glyph unicode="E" horiz-adv-x="466" d="M129 0q-53 0 -74.5 22t-21.5 63q0 11 2 28t6 38q18 100 37 195t42 193q7 29 15.5 49.5t23 33.5t37 19t55.5 6h211q11 0 9 -10l-4 -21q-2 -6 -4 -7.5t-8 -1.5h-210q-36 0 -52.5 -15.5t-26.5 -58.5l-17 -76.5t-22 -101.5h254q11 0 9 -10l-5 -22q-2 -5 -4 -7t-8 -2h-255 q-12 -60 -19 -103t-12 -69q-6 -38 -6 -58q0 -23 13.5 -33t43.5 -10h222q10 0 9 -10l-4 -21q-2 -6 -4 -8t-8 -2h-224z" />
<glyph unicode="F" horiz-adv-x="428" d="M119 316l-60 -307q-1 -9 -11 -9h-26q-10 0 -9 9l104 534q6 31 15.5 50.5t27.5 33.5q16 11 37 15.5t44 4.5h205q12 0 9 -9l-5 -22q-3 -10 -13 -10h-192q-22 0 -34.5 -2.5t-22.5 -10.5q-9 -8 -16 -22t-12 -43l-33 -171h257q11 0 9 -10l-5 -22q-2 -5 -4 -7t-8 -2h-257z" />
<glyph unicode="G" horiz-adv-x="546" d="M316 294q-12 0 -9 10l5 22q2 5 4 7t8 2h150q11 0 10 -9l-56 -286q-2 -11 -5.5 -16.5t-14.5 -9.5q-31 -11 -73.5 -17t-94.5 -6q-47 0 -83.5 8t-62 27.5t-39 52t-13.5 80.5q0 37 9.5 95.5t22.5 122.5q14 67 33.5 124t55.5 93q30 30 75 46t111 16q48 0 88 -12t69 -29 q10 -7 5 -16l-9 -15q-4 -7 -8 -7t-9 3q-32 17 -64 26t-73 9q-63 0 -102 -17.5t-63 -50t-38 -78t-26 -102.5q-14 -66 -21 -113.5t-7 -85.5q0 -35 7 -61t24.5 -43t48 -25t77.5 -8q32 0 63.5 4t57.5 10q10 2 12.5 5t4.5 11l46 233h-116z" />
<glyph unicode="H" horiz-adv-x="581" d="M446 9q-1 -9 -11 -9h-26q-11 0 -9 9l59 306h-341l-59 -306q-1 -9 -11 -9h-26q-11 0 -9 9l122 629q1 9 11 9h26q10 0 9 -9l-55 -283h341l55 283q1 9 11 9h26q10 0 9 -9z" />
<glyph unicode="I" horiz-adv-x="202" d="M63 9q-1 -9 -11 -9h-26q-11 0 -9 9l122 629q1 9 11 9h26q10 0 9 -9z" />
<glyph unicode="J" horiz-adv-x="283" d="M-37 0q-9 0 -8 9l4 23q1 8 11 8h41q43 0 66.5 16.5t35.5 40.5t17.5 51t10.5 50l85 440q1 9 11 9h26q10 0 9 -9l-86 -446q-6 -30 -13.5 -57t-18.5 -53q-20 -44 -56.5 -63t-91.5 -19h-43z" />
<glyph unicode="K" horiz-adv-x="482" d="M126 355h78q18 0 28.5 4.5t19.5 15.5l217 262q5 6 8.5 8t10.5 2h29q8 0 9 -4t-4 -9l-245 -292q-5 -7 -5 -10t3 -9l152 -312q5 -11 -9 -11h-25q-13 0 -17 9l-135 285q-6 14 -13 17.5t-23 3.5h-87l-59 -306q-1 -9 -11 -9h-26q-11 0 -9 9l122 629q1 9 11 9h26q10 0 9 -9z " />
<glyph unicode="L" horiz-adv-x="358" d="M134 638q1 9 11 9h26q10 0 9 -9l-103 -531q-5 -28 -5 -42q0 -24 32 -24h177q9 0 8 -8l-4 -24q-1 -9 -11 -9h-178q-38 0 -54 16t-16 44q0 11 2 25.5t6 35.5z" />
<glyph unicode="M" horiz-adv-x="733" d="M614 12q-1 -12 -13 -12h-25q-11 0 -9 12q12 75 23 153t21.5 155t19.5 150t17 136h-11q-31 -57 -61.5 -113.5t-62 -115t-66 -119.5t-72.5 -127q-8 -13 -17 -17.5t-21 -4.5h-23q-12 0 -20 5t-10 19q-11 57 -22 118.5t-22.5 122.5t-22 120t-19.5 112h-9q-21 -77 -39.5 -150 t-36 -145t-34.5 -146t-35 -153q-3 -12 -13 -12h-22q-12 0 -9 12q19 84 36.5 160t35.5 149.5t36.5 147t39.5 150.5q5 16 13 22t25 6h19q16 0 25 -4.5t12 -21.5q9 -49 19 -106t20.5 -118t22 -124t22.5 -123h11q37 63 70 122t64 117t62 115.5t63 118.5q7 14 16 19t24 5h26 q14 0 22.5 -5.5t6.5 -22.5q-17 -146 -35.5 -297t-41.5 -310z" />
<glyph unicode="N" horiz-adv-x="578" d="M522 637q2 10 12 10h24q10 0 7 -11l-117 -606q-3 -17 -10.5 -23.5t-25.5 -6.5h-18q-17 0 -25.5 7t-13.5 24l-176 575h-7l-116 -596q-3 -10 -12 -10h-24q-10 0 -7 11l117 606q3 17 10.5 23.5t25.5 6.5h18q17 0 25.5 -7t13.5 -24l176 -575h7z" />
<glyph unicode="O" horiz-adv-x="567" d="M231 32q42 0 74 10t56 34t42.5 64t34.5 100q9 33 16 66.5t12 65t8 57.5t3 44q0 76 -32 109t-107 33q-44 0 -77.5 -11t-59 -36t-44 -65t-31.5 -97q-17 -71 -27.5 -133t-10.5 -103q0 -70 31.5 -104t111.5 -34zM230 -9q-90 0 -140 38t-50 134q0 48 11.5 112t28.5 142 q13 62 34 107t52.5 74.5t74.5 43.5t101 14q86 0 134.5 -39t48.5 -135q0 -49 -11 -113t-30 -139q-16 -65 -38 -110t-52 -74t-70.5 -42t-93.5 -13z" />
<glyph unicode="P" horiz-adv-x="485" d="M278 615q-27 0 -49.5 -2t-37.5 -5q-11 -2 -14.5 -6.5t-5.5 -15.5l-56 -288q26 -1 49.5 -1h46.5q57 0 96 11t64 37q28 29 42 72t14 86q0 60 -35.5 86t-113.5 26zM59 9q-1 -9 -11 -9h-26q-11 0 -9 9l119 614q3 15 17 19q25 7 60.5 10.5t73.5 3.5q191 0 191 -146 q0 -51 -17 -104t-53 -89q-33 -33 -82.5 -47t-113.5 -14h-101z" />
<glyph unicode="Q" horiz-adv-x="567" d="M230 -9q-90 0 -140 38t-50 134q0 48 11.5 112t28.5 142q13 62 34 107t52.5 74.5t74.5 43.5t101 14q86 0 134.5 -39t48.5 -135q0 -49 -11 -113t-30 -139q-26 -106 -69 -161t-114 -71q20 -36 52 -70.5t64 -60.5q9 -8 1 -13l-27 -18q-9 -5 -19 4q-33 30 -64 69.5t-54 82.5 q-6 -1 -12 -1h-12zM231 32q42 0 74 10t56 34t42.5 64t34.5 100q9 33 16 66.5t12 65t8 57.5t3 44q0 76 -32 109t-107 33q-44 0 -77.5 -11t-59 -36t-44 -65t-31.5 -97q-17 -71 -27.5 -133t-10.5 -103q0 -70 31.5 -104t111.5 -34z" />
<glyph unicode="R" horiz-adv-x="491" d="M191 610q-11 -2 -14.5 -6t-5.5 -15l-51 -261q20 -1 43.5 -1.5t49.5 -0.5q54 0 91 9t61 33q27 27 41.5 67t14.5 77q0 31 -10 51.5t-30.5 31.5t-51.5 15.5t-72 4.5q-22 0 -37.5 -1.5t-28.5 -3.5zM148 646q20 5 50 7.5t65 2.5q100 0 152.5 -30t52.5 -104q0 -41 -10 -78.5 t-30.5 -68.5t-51.5 -52t-73 -29l113 -284q4 -10 -6 -10h-30q-10 0 -14 9l-106 268q-2 6 -5.5 7.5t-8.5 1.5q-16 -1 -33 -1.5t-32 -0.5q-17 0 -35.5 0.5t-33.5 1.5l-53 -277q-1 -9 -11 -9h-26q-11 0 -9 9l119 618q3 16 16 19z" />
<glyph unicode="S" horiz-adv-x="479" d="M168 -9q-45 0 -87.5 9t-74.5 24q-9 4 -5 14l8 20q4 11 15 5q32 -15 69.5 -23t71.5 -8q69 0 113 26t61 86q5 19 8.5 37.5t3.5 32.5q0 36 -19 56t-71 34l-78 20q-53 13 -76 39t-23 74q0 20 5 46.5t13 52.5q16 55 61.5 87.5t135.5 32.5q75 0 141 -23q7 -2 8 -5.5t-1 -8.5 l-6 -19q-3 -8 -16 -4q-66 19 -130 19q-70 0 -103 -24.5t-47 -74.5q-5 -18 -8.5 -37t-3.5 -38q0 -27 13.5 -46t55.5 -30l81 -21q67 -17 92 -45t25 -77q0 -16 -4 -38.5t-11 -45.5q-22 -75 -76 -111t-141 -36z" />
<glyph unicode="T" horiz-adv-x="458" d="M495 647q10 0 9 -9l-5 -24q-1 -8 -11 -8h-183l-116 -597q-1 -9 -11 -9h-27q-11 0 -9 9l116 597h-179q-12 0 -9 10l5 22q1 9 13 9h407z" />
<glyph unicode="U" horiz-adv-x="557" d="M504 638q1 9 11 9h27q10 0 9 -9l-83 -430q-12 -62 -30 -104t-46.5 -67t-70 -35.5t-99.5 -10.5q-40 0 -74 7.5t-58.5 24.5t-38 45t-13.5 69q0 30 6 63.5t12 63.5l72 374q1 9 11 9h27q10 0 9 -9l-83 -424q-5 -24 -6.5 -43t-1.5 -32q0 -32 11.5 -52.5t31 -32.5t45 -17 t53.5 -5q43 0 75.5 7t56 27t39.5 55.5t27 92.5z" />
<glyph unicode="V" horiz-adv-x="494" d="M177 0q-17 0 -24.5 7.5t-10.5 28.5q-21 144 -38.5 292t-30.5 309q-1 10 12 10h23q13 0 14 -10q11 -152 28 -299.5t37 -296.5h8q82 148 150.5 293t137.5 303q4 10 17 10h25q14 0 10 -10q-35 -77 -70 -152t-71 -149.5t-74.5 -150t-81.5 -153.5q-10 -18 -18.5 -25t-24.5 -7 h-18z" />
<glyph unicode="W" horiz-adv-x="776" d="M817 637q-27 -70 -55.5 -139.5t-60.5 -142.5t-68 -151t-78 -165q-10 -20 -19 -29.5t-27 -9.5h-17q-14 0 -22 8t-10 30q-10 125 -15.5 254.5t-11.5 278.5h-9q-28 -66 -55.5 -131t-56.5 -130.5t-59.5 -134t-64.5 -141.5q-8 -19 -18 -26.5t-25 -7.5h-18q-16 0 -22 8t-8 28 q-10 130 -15.5 276.5t-7.5 324.5q0 7 3 8.5t11 1.5h20q8 0 11 -1.5t3 -8.5q0 -143 4 -297t12 -299h8q61 128 118 262t118 282q8 18 16.5 24t24.5 6h22q18 0 24.5 -6t7.5 -24q5 -138 11 -272t16 -272h8q75 161 139 308t118 288q4 10 17 10h21q14 0 10 -10z" />
<glyph unicode="X" horiz-adv-x="477" d="M411 11q3 -11 -11 -11h-22q-13 0 -16 9l-95 291q-3 9 -7.5 11.5t-17.5 2.5h-19q-11 0 -16.5 -1.5t-12.5 -12.5l-185 -292q-5 -8 -14 -8h-31q-13 0 -4 14l201 312q5 7 5 14q0 4 -1 8t-3 9l-81 279q-3 11 11 11h20q13 0 16 -9l74 -266q3 -10 8 -14t17 -4h17q11 0 17 4 t14 15l178 266q5 8 14 8h33q13 0 4 -14l-198 -285q-5 -7 -5 -12q0 -4 3 -13z" />
<glyph unicode="Y" horiz-adv-x="435" d="M175 9q-1 -9 -11 -9h-27q-10 0 -9 9l43 218q-40 103 -64.5 202t-35.5 210q0 8 9 8h27q10 0 11 -8q8 -102 30.5 -194t50.5 -167h8q33 44 62.5 86.5t57 86.5t53.5 90.5t52 99.5q3 6 11 6h29q10 0 7 -8q-27 -53 -54.5 -103t-58.5 -100t-67.5 -102t-81.5 -110z" />
<glyph unicode="Z" horiz-adv-x="474" d="M101 606q-10 0 -8 9l5 23q1 9 12 9h359q16 0 15 -14l-1 -11q-2 -14 -10 -28t-30 -41l-400 -512h329q10 0 9 -9l-5 -23q-2 -9 -12 -9h-366q-15 0 -13 11l1 9q2 13 7.5 23t22.5 32l413 531h-328z" />
<glyph unicode="[" horiz-adv-x="247" d="M-3 -92q-7 0 -6 7l148 760q1 7 8 7h143q8 0 7 -7l-5 -27q-1 -7 -10 -7h-102l-134 -692h101q8 0 7 -7l-5 -27q-1 -7 -10 -7h-142z" />
<glyph unicode="\" horiz-adv-x="303" d="M90 683q-1 7 6 7h28q9 0 10 -7l79 -702q1 -7 -6 -7h-28q-9 0 -10 7z" />
<glyph unicode="]" horiz-adv-x="251" d="M243 682q7 0 6 -7l-148 -760q-1 -7 -8 -7h-143q-8 0 -7 7l5 27q1 7 10 7h102l134 692h-101q-8 0 -7 7l5 27q1 7 10 7h142z" />
<glyph unicode="^" horiz-adv-x="512" d="M333 606q9 0 14 -3t10 -13l104 -227q5 -9 -6 -13l-20 -9q-11 -5 -15 3l-102 210h-9l-191 -212q-5 -5 -8 -6t-8 3l-20 16q-8 6 -1 14l195 226q6 7 11 9t14 2h32z" />
<glyph unicode="_" horiz-adv-x="483" d="M378 -58q5 0 4 -6l-3 -19q-1 -6 -8 -6h-414q-4 0 -4 6l3 19q1 5 3 5.5t5 0.5h414z" />
<glyph unicode="`" horiz-adv-x="283" d="M314 631q8 -3 5 -11l-10 -25q-3 -6 -11 -3l-194 70q-9 3 -13.5 8.5t0.5 14.5l11 24q5 10 16 6z" />
<glyph unicode="a" horiz-adv-x="456" d="M332 239q-17 2 -35.5 3.5t-40.5 1.5h-56q-64 0 -93 -22q-11 -8 -18.5 -20t-12.5 -27q-6 -19 -11 -41.5t-5 -42.5q0 -32 20.5 -46.5t66.5 -14.5h9q68 0 109 33.5t52 94.5zM296 53q-22 -30 -57 -46t-89 -16h-11q-68 0 -95.5 24t-27.5 70q0 23 5.5 50t13.5 53q7 21 19 38.5 t29 28.5q41 28 129 28h48q18 0 40 -1.5t39 -4.5l7 36q11 53 11 79q0 38 -24.5 53t-80.5 15q-30 0 -64.5 -6t-63.5 -15q-11 -3 -12 5l-3 22q-1 9 7 11q33 10 70 16t75 6q27 0 52 -4.5t44.5 -15.5t31 -30t12.5 -47q0 -16 -4.5 -44.5t-9.5 -57.5l-55 -292q-1 -8 -9 -8h-23 q-10 0 -8 10l6 43h-2z" />
<glyph unicode="b" horiz-adv-x="479" d="M353 181q12 53 19.5 102.5t7.5 75.5q0 58 -24.5 79.5t-78.5 21.5q-68 0 -108.5 -30.5t-54.5 -105.5l-19 -99q-7 -36 -11.5 -61t-4.5 -48q0 -46 21.5 -66t83.5 -20q39 0 66.5 7.5t47 24.5t32.5 46t23 73zM138 449h2q22 23 58 36.5t88 13.5q51 0 80.5 -15t44.5 -44 q14 -30 14 -72q0 -37 -8 -87.5t-21 -107.5q-11 -49 -28 -83.5t-42.5 -56.5t-60.5 -32t-83 -10q-42 0 -70.5 7.5t-45.5 22.5t-24 37.5t-7 52.5q0 21 5.5 53t13.5 74l85 432q1 7 9 7h28q7 0 6 -7z" />
<glyph unicode="c" horiz-adv-x="408" d="M328 32q2 -7 -0.5 -9.5t-7.5 -4.5q-27 -11 -64.5 -19t-72.5 -8q-73 0 -112.5 29.5t-39.5 101.5q0 15 2.5 36.5t6.5 46t9.5 50t10.5 49.5q7 31 14 55t16 42t19.5 32t24.5 26q23 20 55 30t77 10q35 0 68.5 -8.5t59.5 -23.5q9 -5 5 -14l-9 -18q-4 -8 -15 -3q-25 12 -55 20 t-59 8t-53.5 -7.5t-41.5 -22.5q-21 -18 -35.5 -48t-27.5 -85q-5 -22 -10 -45.5t-9 -46.5t-6 -43.5t-2 -35.5q0 -51 26.5 -73.5t89.5 -22.5q12 0 27.5 2t32 5.5t32.5 8.5t29 10q4 2 6.5 1.5t4.5 -6.5z" />
<glyph unicode="d" d="M361 298q4 19 5 34t1 26q0 51 -31 76.5t-85 25.5q-33 0 -57.5 -8t-43 -27.5t-31 -51.5t-21.5 -79t-16 -91.5t-7 -78.5q0 -49 25.5 -71.5t82.5 -22.5q36 0 61.5 7.5t43.5 24t29 42.5t18 62zM433 670q1 7 9 7h28q7 0 6 -7l-99 -506q-11 -53 -27.5 -87t-41 -53t-57 -26 t-74.5 -7q-80 0 -113 32.5t-33 98.5q0 35 7.5 82t17.5 99q10 57 27 94.5t41 60t55 32t71 9.5q51 0 84.5 -16.5t50.5 -52.5h1z" />
<glyph unicode="e" horiz-adv-x="436" d="M374 231q-2 -7 -6 -11.5t-15 -4.5h-270q-9 -51 -9 -88q0 -27 6 -45.5t20 -30t37 -16.5t57 -5q30 0 67 8t63 17q10 4 11 -5l4 -20q1 -8 -7 -12q-34 -13 -72 -20t-72 -7q-46 0 -76 9t-48 26t-25.5 41t-7.5 55q0 18 3 45t7.5 56t10 57.5t9.5 49.5q18 91 61 130q24 21 57 30 t75 9q73 0 107 -31t34 -89q0 -14 -2 -32t-5 -37.5t-6.5 -40t-7.5 -38.5zM321 253q12 0 15 14q7 32 11 59.5t4 47.5q0 48 -26.5 67t-76.5 19q-32 0 -56 -6.5t-42 -23.5t-30 -46.5t-20 -74.5l-10 -56h231z" />
<glyph unicode="f" horiz-adv-x="255" d="M92 108q-10 -53 -18 -92.5t-16 -71t-17 -58.5t-21 -55q-3 -8 -12 -8h-25q-10 0 -6 9q12 29 21 56.5t17 58t15.5 65.5t15.5 79l64 359h-60q-8 0 -6 8l3 16q3 8 10 9l62 9l6 28q10 45 21.5 76.5t30 51.5t46.5 29t70 9q21 0 41.5 -3t34.5 -8q8 -4 7 -11l-5 -18 q-2 -5 -4 -6.5t-9 0.5q-14 3 -30 5t-32 2q-30 0 -50 -4.5t-34 -18t-23.5 -37.5t-17.5 -63l-7 -34h111q7 0 6 -7l-5 -27q-2 -6 -8 -6h-113z" />
<glyph unicode="g" d="M361 293q3 15 4.5 32.5t1.5 34.5q0 45 -29.5 72.5t-81.5 27.5q-35 0 -60.5 -8t-44 -26t-30.5 -47.5t-21 -73.5q-11 -58 -18 -104t-7 -75q0 -51 25.5 -73.5t74.5 -22.5q71 0 109.5 35t52.5 106zM384 431l14 49q2 8 4.5 9t8.5 1h17q12 0 10 -11l-95 -481q-10 -50 -23 -85 t-33 -57.5t-50.5 -32.5t-74.5 -10q-32 0 -66.5 6t-56.5 15q-9 4 -7 11l7 20q2 5 4 6t8 -1q26 -9 55 -14t57 -5q34 0 57.5 8.5t39 26.5t25.5 46t18 66l11 53h-3q-19 -29 -53 -44.5t-87 -15.5q-139 0 -139 134q0 28 7.5 78t18.5 108q10 55 26.5 91.5t40.5 58t55.5 30t72.5 8.5 q47 0 81.5 -16.5t48.5 -51.5h1z" />
<glyph unicode="h" horiz-adv-x="484" d="M144 434q23 30 60.5 47.5t97.5 17.5q67 0 96 -28t29 -79q0 -23 -5.5 -57t-13.5 -75l-48 -253q-1 -7 -9 -7h-27q-8 0 -7 8l55 286q6 31 9 52t3 36q0 38 -21 58t-72 20q-32 0 -60 -8t-50.5 -26.5t-38.5 -48.5t-25 -75l-57 -295q-1 -7 -9 -7h-27q-8 0 -7 8l128 662q1 7 9 7 h28q7 0 6 -7l-46 -236h2v0z" />
<glyph unicode="i" horiz-adv-x="218" d="M183 662q23 0 27 -11t-3 -40q-5 -19 -14 -23.5t-26 -4.5h-4q-22 0 -27.5 9.5t1.5 37.5q5 19 14 25.5t29 6.5h3zM77 7q-1 -7 -9 -7h-29q-7 0 -6 7l92 476q1 7 9 7h29q7 0 6 -7z" />
<glyph unicode="j" horiz-adv-x="203" d="M113 483q1 7 9 7h29q7 0 6 -7l-93 -484q-7 -36 -18.5 -70.5t-37.5 -60.5q-21 -21 -52 -32t-76 -11h-16q-9 0 -8 8l4 23q1 7 9 7h19q58 0 94 37q18 19 26.5 47.5t13.5 56.5zM171 662q23 0 27 -11t-3 -40q-5 -19 -14 -23.5t-26 -4.5h-4q-22 0 -27.5 9.5t1.5 37.5 q5 19 14 25.5t29 6.5h3z" />
<glyph unicode="k" horiz-adv-x="428" d="M64 7q-1 -7 -9 -7h-27q-8 0 -7 8l128 662q1 7 9 7h28q7 0 6 -7l-74 -389h58q10 0 17 3t16 14l165 186q5 6 12 6h33q13 0 4 -10l-190 -212q-4 -6 -4 -8q0 -3 2 -7l112 -245q4 -8 -5 -8h-30q-8 0 -12 8l-99 221q-3 7 -7 9.5t-13 2.5h-67z" />
<glyph unicode="l" horiz-adv-x="243" d="M150 670q1 7 9 7h28q7 0 6 -7l-108 -560q-3 -14 -4 -25.5t-1 -16.5q0 -15 7.5 -22.5t28.5 -7.5h46q7 0 6 -7l-4 -24q-1 -7 -12 -7h-42q-41 0 -57.5 15t-16.5 45q0 20 6 52z" />
<glyph unicode="m" horiz-adv-x="774" d="M146 434q23 29 61.5 47t92.5 18q49 0 77.5 -19t40.5 -54q26 29 71 51t100 22q65 0 96 -30t31 -81q0 -19 -4.5 -48.5t-11.5 -67.5l-50 -265q-1 -7 -9 -7h-27q-8 0 -7 8l53 276q6 32 9.5 53.5t3.5 40.5q0 42 -22.5 62t-70.5 20q-45 0 -84.5 -20t-70.5 -57q-2 -23 -6 -50.5 t-10 -60.5l-50 -265q-1 -7 -9 -7h-27q-8 0 -7 8l53 276q5 27 9 50.5t4 39.5q0 45 -24 65.5t-65 20.5q-66 0 -112.5 -36t-62.5 -122l-57 -295q-1 -7 -9 -7h-27q-8 0 -7 8l92 477q1 5 7 5h26q7 0 6 -7l-5 -49h2z" />
<glyph unicode="n" horiz-adv-x="485" d="M146 434q22 30 59.5 47.5t97.5 17.5q67 0 96 -28t29 -79q0 -23 -5.5 -57t-13.5 -75l-48 -253q-1 -7 -9 -7h-27q-8 0 -7 8l55 286q6 31 9 52t3 36q0 38 -21 58t-72 20q-32 0 -60 -7.5t-50.5 -26t-38.5 -49t-25 -75.5l-57 -295q-1 -7 -9 -7h-27q-8 0 -7 8l92 477q1 5 7 5 h26q7 0 6 -7l-5 -49h2z" />
<glyph unicode="o" d="M184 30q37 0 63.5 9.5t45.5 30.5t32.5 55.5t24.5 84.5q11 48 16.5 88.5t5.5 64.5q0 50 -24 73.5t-84 23.5q-38 0 -64.5 -9.5t-45.5 -30.5t-32 -55.5t-24 -84.5q-11 -48 -16.5 -88.5t-5.5 -64.5q0 -45 22.5 -71t85.5 -26zM177 -9q-78 0 -112 33t-34 98q0 34 6.5 75.5 t19.5 101.5q12 56 30 94.5t43.5 62t60.5 33.5t81 10q75 0 110 -33t35 -91q0 -33 -6 -80.5t-20 -103.5q-13 -54 -30 -92t-42 -62t-59.5 -35t-82.5 -11z" />
<glyph unicode="p" horiz-adv-x="491" d="M214 30q34 0 59 8.5t43.5 29.5t32.5 57t25 90q9 42 14.5 83.5t5.5 70.5q0 45 -24 68t-82 23q-30 0 -56 -6t-48 -22.5t-38 -44.5t-25 -71l-25 -124q-2 -13 -3.5 -25t-1.5 -24q0 -24 6 -44.5t20.5 -35.5t38 -24t58.5 -9zM27 -170q-1 -7 -9 -7h-27q-9 0 -7 8l125 654 q1 5 7 5h27q7 0 6 -7l-5 -48h2q23 32 58 48t91 16q77 0 110 -32.5t33 -92.5q0 -30 -5.5 -72.5t-16.5 -96.5q-13 -65 -31 -106.5t-43 -65.5t-57.5 -33t-74.5 -9q-60 0 -91 19.5t-45 54.5h-3z" />
<glyph unicode="q" d="M361 293q3 15 4.5 32.5t1.5 34.5q0 45 -29.5 72.5t-81.5 27.5q-35 0 -60.5 -7.5t-43.5 -25.5t-30 -47.5t-21 -74.5q-11 -58 -18.5 -104t-7.5 -75q0 -51 25.5 -73.5t74.5 -22.5q71 0 109.5 35t52.5 106zM312 -170q-1 -7 -9 -7h-26q-9 0 -7 8l44 220h-3q-19 -29 -53 -44.5 t-87 -15.5q-139 0 -139 134q0 28 7.5 77.5t18.5 106.5q10 57 27.5 94t42 58.5t55.5 29.5t70 8q47 0 81.5 -16.5t48.5 -51.5h1l14 49q2 8 4.5 9t8.5 1h17q12 0 10 -11z" />
<glyph unicode="r" horiz-adv-x="292" d="M145 431q22 32 52 45.5t68 13.5h37q8 0 7 -7l-6 -26q-2 -7 -10 -7h-32q-35 0 -59.5 -12t-41.5 -34.5t-28.5 -55.5t-19.5 -76l-51 -265q-1 -7 -9 -7h-27q-8 0 -7 8l92 477q1 5 7 5h26q7 0 6 -7l-6 -52h2z" />
<glyph unicode="s" horiz-adv-x="392" d="M3 51q4 9 14 5q26 -11 57.5 -18.5t63.5 -7.5q49 0 78 14t45 46q8 15 12 34.5t4 36.5q0 23 -17.5 38t-58.5 27l-55 16q-53 15 -71.5 38t-18.5 55q0 16 2.5 31.5t8.5 35.5q16 51 57 74t103 23q30 0 61 -5.5t57 -15.5q9 -4 6 -13l-7 -19q-3 -9 -13 -5q-51 18 -109 18 q-51 0 -76.5 -16t-36.5 -47q-10 -29 -10 -56q0 -20 13 -35t54 -27l54 -16q30 -9 49 -18.5t30.5 -21t15.5 -26t4 -33.5q0 -22 -5.5 -44.5t-13.5 -40.5q-20 -50 -64 -68.5t-99 -18.5q-74 0 -136 28q-9 4 -5 14l7 18v0z" />
<glyph unicode="t" horiz-adv-x="283" d="M159 490h119q7 0 6 -7l-5 -27q-2 -6 -8 -6h-120l-47 -255q-7 -37 -11.5 -63.5t-4.5 -44.5q0 -26 16 -37.5t54 -11.5h55q7 0 6 -7l-5 -24q-1 -7 -9 -7h-55q-51 0 -78 18.5t-27 63.5q0 27 6 59t11 60l46 249h-62q-7 0 -6 8l3 16q1 8 10 9l63 9l23 116q1 7 9 7h28q7 0 6 -7z " />
<glyph unicode="u" horiz-adv-x="476" d="M384 168q-11 -53 -25.5 -88t-40.5 -55q-23 -19 -54.5 -26.5t-84.5 -7.5q-74 0 -108.5 28t-34.5 85q0 10 1.5 25.5t6.5 37.5l60 316q1 7 9 7h28q7 0 6 -7l-60 -311q-8 -38 -8 -65q0 -38 24 -57.5t82 -19.5q39 0 63 6t42 21q20 17 32 46t21 74l59 306q1 7 9 7h28q7 0 6 -7z " />
<glyph unicode="v" horiz-adv-x="402" d="M177 25q-10 -16 -17.5 -20.5t-18.5 -4.5h-19q-23 0 -27 26q-20 109 -32 224.5t-19 230.5q0 9 9 9h24q5 0 7.5 -1t2.5 -7q6 -110 17.5 -223.5t28.5 -219.5h8q32 54 63.5 111t60.5 114t55 112t47 106q2 6 4.5 7t7.5 1h29q9 0 5 -10q-24 -54 -52.5 -113.5t-59 -119 t-62.5 -116.5t-62 -106z" />
<glyph unicode="w" horiz-adv-x="638" d="M649 477q-18 -48 -41.5 -105t-49 -116.5t-52 -117t-51.5 -107.5q-8 -17 -18 -24t-24 -7h-12q-14 0 -22.5 6.5t-10.5 26.5q-11 98 -17 194.5t-11 196.5h-5q-43 -100 -88 -197.5t-93 -195.5q-8 -17 -16.5 -24t-26.5 -7h-14q-15 0 -22 7t-9 25q-11 102 -15.5 211t-4.5 236 q0 11 13 11h17q8 0 11 -1.5t3 -9.5q0 -114 3.5 -225.5t13.5 -214.5h6q52 105 96.5 203t88.5 201q6 15 12.5 19t20.5 4h23q26 0 27 -30q2 -50 5 -98t6 -96.5t7.5 -98.5t9.5 -104h6q54 107 101.5 221.5t86.5 219.5q4 10 15 10h21q14 0 10 -13z" />
<glyph unicode="x" horiz-adv-x="412" d="M343 10q5 -10 -6 -10h-26q-11 0 -15 10l-89 205q-4 8 -7.5 11.5t-11.5 3.5h-6q-8 0 -12.5 -3t-10.5 -11l-147 -209q-6 -7 -17 -7h-25q-12 0 -5 9l167 235q4 5 4 10q0 2 -0.5 4t-1.5 5l-85 218q-3 9 10 9h20q11 0 14 -8l77 -197q7 -18 18 -18h6q8 0 12 3.5t14 16.5 l148 196q6 7 15 7h28q14 0 6 -11l-173 -223q-6 -8 -6 -11q0 -1 2 -7z" />
<glyph unicode="y" horiz-adv-x="395" d="M49 -146q22 37 44.5 77t44.5 81q-24 2 -37.5 14.5t-18.5 42.5q-6 42 -11 86.5t-9.5 95t-8 107.5t-7.5 124q0 8 8 8h29q8 0 8 -8q4 -133 12 -230.5t19 -170.5q2 -17 11 -23.5t26 -6.5q50 89 102.5 201.5t100.5 230.5q2 7 11 7h29q11 0 7 -9q-32 -76 -64 -146.5t-65 -137.5 q-40 -81 -86 -168t-106 -194q-3 -5 -5.5 -6t-7.5 1l-22 10q-9 5 -4 14z" />
<glyph unicode="z" horiz-adv-x="402" d="M295 38q6 0 5 -7l-4 -25q-1 -6 -8 -6h-293q-11 0 -10 11l2 11q2 9 4.5 14t11.5 16l322 400h-251q-6 0 -5 7l4 25q1 6 8 6h296q12 0 11 -10l-1 -9q-1 -8 -4.5 -14t-14.5 -20l-326 -399h253z" />
<glyph unicode="{" horiz-adv-x="284" d="M273 641q-28 0 -39 -12t-19 -48l-30 -152q-12 -61 -38.5 -95t-77.5 -39v-3q47 -12 61 -43t2 -94l-27 -137q-2 -12 -4.5 -24.5t-2.5 -21.5q0 -12 7.5 -17.5t27.5 -5.5h37q8 0 7 -7l-6 -27q-1 -7 -9 -7h-35q-74 0 -74 53q0 8 1 18.5t3 19.5l31 161q10 52 -4 76.5t-54 35.5 q-8 2 -7 11l5 26q1 8 9 9q46 9 69 31.5t33 71.5l33 170q10 50 32.5 70.5t72.5 20.5h36q8 0 7 -7l-6 -27q-1 -7 -9 -7h-32z" />
<glyph unicode="|" horiz-adv-x="195" d="M51 -14q-2 -9 -9 -9h-25q-9 0 -7 9l136 697q1 9 10 9h25q7 0 6 -9z" />
<glyph unicode="}" horiz-adv-x="285" d="M-2 -51q28 0 39 12t19 48l30 152q12 61 38.5 95t77.5 39v3q-47 12 -61 43t-2 94l27 137q2 12 4.5 24.5t2.5 21.5q0 12 -7.5 17.5t-27.5 5.5h-37q-8 0 -7 7l6 27q1 7 9 7h35q74 0 74 -53q0 -8 -1 -18.5t-3 -19.5l-31 -161q-5 -26 -4.5 -45t8 -32t21 -21t33.5 -14 q8 -2 7 -11l-5 -26q-1 -8 -9 -9q-46 -9 -69 -31.5t-33 -71.5l-33 -170q-10 -50 -32.5 -70.5t-72.5 -20.5h-36q-8 0 -7 7l6 27q1 7 9 7h32z" />
<glyph unicode="~" horiz-adv-x="512" d="M227 324q-18 14 -32 21t-31 7q-20 0 -44 -17.5t-57 -68.5q-3 -5 -6 -6t-9 2l-21 12q-2 2 -3.5 5t1.5 8q36 64 71.5 88.5t77.5 24.5q19 0 38.5 -8.5t39.5 -23.5l49 -39q18 -14 30.5 -19t29.5 -5q25 0 53.5 20.5t54.5 60.5q5 8 13 2l18 -12q5 -4 5 -6.5t-2 -6.5 q-19 -31 -38 -51.5t-37.5 -33t-36.5 -17.5t-35 -5q-23 0 -42.5 7.5t-40.5 24.5z" />
<glyph unicode="&#xa1;" horiz-adv-x="219" d="M0 0zM146.002 498.999q25.999 0 25.999 -21.998q0 -3 -1 -10.5q-1 -7.49902 -4 -24.498q-4 -19.999 -13.499 -27.998q-9.49902 -8 -25.498 -8h-9q-26.998 0 -26.998 21.999q0 8.99902 5.99902 35.998q5 19.998 13.5 27.498q8.49902 7.49902 26.498 7.49902h7.99902z M39.0088 -144.961q-1 -8 -8.99902 -8h-28.998q-10 0 -9 8l101.994 494.97q1 6.99902 8.99902 6.99902h19.999q9.99902 0 7.99902 -7.99902z" />
<glyph unicode="&#xa2;" horiz-adv-x="518" d="M340 497q57 -6 101 -29q4 -2 5.5 -5t-1.5 -9l-9 -18q-4 -8 -15 -3q-41 20 -88 25l-84 -428q25 2 54 8.5t53 15.5q11 4 14 -6l4 -16q3 -10 -8 -14q-25 -11 -58.5 -18t-65.5 -9l-16 -83q-3 -10 -14 -10h-13q-14 0 -11 12l16 82q-62 5 -94.5 34.5t-32.5 95.5q0 15 2.5 36.5 t6.5 46t9.5 50t10.5 49.5q7 31 14 55t16 42t19.5 32t24.5 26q21 18 50.5 28t70.5 12l18 89q2 10 14 10h14q14 0 11 -11zM122 126q0 -46 20.5 -68t68.5 -27l83 428q-53 -3 -82 -29q-21 -18 -35.5 -48t-27.5 -85q-5 -22 -10 -45.5t-9 -46.5t-6 -43.5t-2 -35.5z" />
<glyph unicode="&#xa3;" horiz-adv-x="518" d="M199 317l-10 -51q-8 -40 -17.5 -73t-24 -60t-34 -49.5t-47.5 -40.5v-2h324q10 0 9 -9l-5 -24q-1 -8 -11 -8h-374q-7 0 -10.5 2t-1.5 10l3 17q2 8 5 12.5t10 9.5q28 21 48 39.5t35 40.5t25 50.5t18 67.5l13 68h-57q-8 0 -7 7l3 17q1 4 3 6t10 4l57 10l18 97q11 54 25 90.5 t37 59.5q26 26 60 37t76 11q33 0 67 -8t59 -21q11 -5 5 -15l-8 -16q-4 -8 -15 -4q-27 11 -56 17t-52 6q-33 0 -57.5 -7t-43 -25t-31 -48.5t-21.5 -77.5l-19 -98h188q8 0 7 -8l-5 -28q-1 -6 -9 -6h-189z" />
<glyph unicode="&#xa4;" horiz-adv-x="516" d="M225 103q-27 0 -52 8t-47 25l-89 -72q-10 -8 -16 0l-16 20q-6 7 3 15l88 72q-8 15 -13 35.5t-5 42.5q0 43 15 79.5t41 64.5l-56 68q-6 7 3 15l21 17q10 8 16 0l56 -68q52 32 117 32q25 0 51 -8t48 -25l89 72q10 8 16 0l16 -20q6 -8 -3 -15l-88 -72q8 -15 13 -33t5 -40 q0 -47 -15 -84t-41 -65l56 -68q6 -8 -3 -15l-21 -17q-10 -8 -16 0l-56 68q-26 -16 -56 -24t-61 -8zM284 415q-37 0 -66 -12.5t-49.5 -34.5t-31.5 -51t-11 -62q0 -57 30.5 -83.5t75.5 -26.5q37 0 66 12.5t49.5 34.5t31.5 52t11 65q0 28 -8.5 48.5t-23.5 33t-34 18.5t-40 6z " />
<glyph unicode="&#xa5;" horiz-adv-x="518" d="M202 289q-29 86 -51.5 168.5t-36.5 181.5q-2 8 9 8h27q10 0 11 -8q15 -103 37 -190.5t49 -159.5h5q34 46 63 87.5t55 83.5t50.5 86.5t50.5 94.5q3 6 10 6h34q10 0 7 -8q-24 -47 -49 -90.5t-52 -86t-57 -85t-65 -88.5h106q6 0 7.5 -2.5t0.5 -7.5l-4 -23q-1 -9 -11 -9h-133 l-18 -88h134q6 0 7.5 -2.5t0.5 -7.5l-4 -23q-1 -9 -11 -9h-135l-21 -108q-1 -9 -11 -9h-27q-10 0 -9 9l21 108h-132q-8 0 -7 10l4 23q1 9 11 9h132l18 88h-133q-6 0 -7.5 2.5t-0.5 7.5l4 23q1 9 11 9h110z" />
<glyph unicode="&#xa6;" horiz-adv-x="195" d="M51 -14q-2 -9 -9 -9h-25q-9 0 -7 9l46 236q1 9 10 9h25q7 0 6 -9zM141 446q-2 -9 -10 -9h-25q-8 0 -6 9l46 237q1 9 10 9h25q7 0 6 -9z" />
<glyph unicode="&#xa7;" horiz-adv-x="418" d="M205 421q-32 -7 -54 -24t-32 -42q-4 -11 -6.5 -23t-2.5 -24q0 -22 12 -34.5t46 -23.5l56 -17q31 9 52.5 29t30.5 43q9 22 9 47q0 23 -13.5 36t-53.5 23zM151 30q34 0 64 8t44 34q8 14 12 30.5t4 29.5q0 30 -17.5 43.5t-55.5 24.5l-58 18q-42 13 -59 34t-17 50 q0 17 3.5 33t8.5 30q9 23 30.5 42.5t50.5 27.5q-28 11 -39.5 31t-11.5 46q0 13 2 27t7 29q17 50 55.5 69t101.5 19q28 0 58.5 -4.5t50.5 -12.5q11 -4 8 -13l-5 -17q-2 -5 -4 -6.5t-8 0.5q-18 5 -45 9.5t-52 4.5q-52 0 -79.5 -12.5t-40.5 -46.5q-4 -11 -5.5 -22.5t-1.5 -18.5 q0 -24 15.5 -38t61.5 -25l42 -10q47 -11 67 -32t20 -53t-11 -59q-10 -24 -29.5 -46t-51.5 -35q51 -24 51 -79q0 -11 -3.5 -31.5t-10.5 -37.5q-19 -46 -59 -63t-96 -17q-32 0 -66.5 7t-57.5 17q-9 4 -5 14l6 15q2 5 5 6.5t11 -1.5q19 -7 49.5 -13t60.5 -6z" />
<glyph unicode="&#xa8;" horiz-adv-x="329" d="M165 704q30 0 30 -25q0 -10 -5 -32q-5 -20 -15 -27.5t-30 -7.5h-12q-31 0 -31 23q0 8 5 33q7 36 43 36h15zM326 704q30 0 30 -25q0 -10 -5 -32q-5 -20 -15 -27.5t-30 -7.5h-12q-31 0 -31 23q0 8 5 33q7 36 43 36h15z" />
<glyph unicode="&#xa9;" horiz-adv-x="810" d="M553 523q-3 -6 -5.5 -6.5t-7.5 1.5q-18 8 -38.5 13.5t-41.5 5.5q-64 0 -100 -39q-19 -21 -33.5 -49t-24 -59.5t-14.5 -63t-5 -58.5q0 -51 23 -74t68 -23q51 0 100 20q9 3 11 -5l5 -16q3 -9 -6 -13q-26 -11 -56 -18t-64 -7q-61 0 -93.5 33.5t-32.5 102.5q0 30 5.5 64 t16 67t26 63t35.5 53q26 30 60 45t80 15q26 0 50.5 -6t44.5 -17q8 -5 3 -16zM331 -14q-66 0 -120 19.5t-92 55.5t-58.5 88.5t-20.5 118.5q0 99 35.5 180.5t96 139.5t140 90t167.5 32q66 0 120 -19.5t92 -55.5t58.5 -88.5t20.5 -118.5q0 -99 -35.5 -180.5t-96 -139.5 t-140 -90t-167.5 -32zM340 28q79 0 149.5 29.5t122.5 83t82.5 126.5t30.5 160q0 59 -18 104t-51.5 75.5t-80.5 46t-105 15.5q-80 0 -150 -29.5t-122 -83t-82.5 -126.5t-30.5 -160q0 -59 18 -104t51.5 -75.5t80.5 -46t105 -15.5z" />
<glyph unicode="&#xaa;" horiz-adv-x="292" d="M235 442q-6 1 -17 1.5t-22 0.5h-38q-34 0 -49 -8.5t-21 -37.5q-2 -12 -3.5 -22.5t-1.5 -16.5q0 -16 10 -22t30 -6h17q38 0 59.5 20.5t28.5 55.5zM218 334h-2q-13 -17 -33.5 -26.5t-54.5 -9.5h-15q-35 0 -53 13.5t-18 44.5q0 10 2 23t5 27q8 42 35 56.5t83 14.5h33 q11 0 21.5 -0.5t19.5 -1.5l4 19q2 11 3.5 18.5t1.5 15.5q0 20 -14.5 28t-43.5 8q-21 0 -43.5 -3.5t-40.5 -9.5q-8 -2 -9 5l-4 18q-1 6 6 9q22 7 47 11t50 4q45 0 68.5 -15t23.5 -49q0 -9 -1.5 -18.5t-4.5 -26.5l-35 -179q-1 -7 -8 -7h-16q-8 0 -8 7z" />
<glyph unicode="&#xab;" horiz-adv-x="449" d="M27 92zM84 226l90 -105q5 -7 -2 -12l-14 -12q-7 -5 -12 0l-111 110q-8 8 -7 16l2 12q2 7 4 11t7 8l156 112q7 6 13 -1l13 -16q5 -7 -2 -12zM261 226l90 -105q5 -7 -2 -12l-14 -12q-7 -5 -12 0l-111 110q-8 8 -7 16l2 12q2 7 4 11t7 8l156 112q7 6 13 -1l13 -16 q5 -7 -2 -12z" />
<glyph unicode="&#xac;" horiz-adv-x="512" d="M37 240q-7 0 -6 7l6 29q1 7 8 7h391q8 0 6 -7l-44 -224q-2 -7 -9 -7h-26q-8 0 -7 7l37 188h-356z" />
<glyph unicode="&#xad;" horiz-adv-x="275" d="M16 243zM23 243q-7 0 -6 7l6 26q1 7 8 7h191q7 0 6 -7l-6 -26q-1 -7 -8 -7h-191z" />
<glyph unicode="&#xae;" horiz-adv-x="810" d="M331 -14q-66 0 -120 19.5t-92 55.5t-58.5 88.5t-20.5 118.5q0 99 35.5 180.5t96 139.5t140 90t167.5 32q66 0 120 -19.5t92 -55.5t58.5 -88.5t20.5 -118.5q0 -99 -35.5 -180.5t-96 -139.5t-140 -90t-167.5 -32zM390 318h-74l-34 -170q-2 -6 -4.5 -7.5t-7.5 -1.5h-22 q-9 0 -8 9l80 394q2 9 6 14.5t16 7.5q15 3 43 5.5t51 2.5q59 0 91 -24.5t32 -78.5q0 -33 -10.5 -58.5t-28.5 -44t-41 -30t-48 -15.5l61 -170q4 -12 -9 -12h-17q-8 0 -11 2.5t-5 8.5zM324 355h59q69 0 101 32q14 14 22 33.5t8 42.5q0 38 -20 54t-62 16q-19 0 -36 -1t-26 -3 q-8 -2 -10 -4.5t-4 -10.5zM340 28q79 0 149.5 29.5t122.5 83t82.5 126.5t30.5 160q0 59 -18 104t-51.5 75.5t-80.5 46t-105 15.5q-80 0 -150 -29.5t-122 -83t-82.5 -126.5t-30.5 -160q0 -59 18 -104t51.5 -75.5t80.5 -46t105 -15.5z" />
<glyph unicode="&#xaf;" horiz-adv-x="327" d="M112 634q-11 0 -8 12l6 27q3 11 12 11h231q11 0 8 -12l-6 -27q-3 -11 -12 -11h-231z" />
<glyph unicode="&#xb0;" horiz-adv-x="294" d="M177 526q38 0 62 24.5t24 67.5q0 25 -16 40t-42 15q-35 0 -60.5 -24.5t-25.5 -65.5q0 -26 16 -41.5t42 -15.5zM170 489q-43 0 -68.5 25.5t-25.5 63.5q0 29 10.5 53.5t28.5 42t43 27t54 9.5q44 0 69 -24t25 -61q0 -62 -37.5 -99t-98.5 -37z" />
<glyph unicode="&#xb1;" horiz-adv-x="512" d="M235 335h-174q-7 0 -6 7l6 29q1 7 8 7h174l34 174q1 7 8 7h28q8 0 7 -7l-34 -174h174q7 0 6 -7l-6 -29q-1 -7 -8 -7h-174l-34 -175q-1 -7 -8 -7h-28q-8 0 -7 7zM-4 0q-7 0 -6 7l6 29q1 7 8 7h391q7 0 6 -7l-6 -29q-1 -7 -8 -7h-391z" />
<glyph unicode="&#xb2;" horiz-adv-x="308" d="M155 740q-10 -2 -11 6l-3 18q-1 8 7 10q17 5 38 7.5t46 2.5q45 0 72 -16t27 -58q0 -26 -7 -46q-15 -42 -78 -64l-48 -17q-21 -8 -34.5 -16t-22 -18t-13 -23t-8.5 -30l-2 -9h164q7 0 6 -7l-4 -19q-1 -3 -2.5 -4.5t-6.5 -1.5h-192q-10 0 -9 10l4 21q9 52 31 81t71 47l48 17 q32 11 45.5 27.5t13.5 48.5q0 22 -14.5 32t-50.5 10q-17 0 -35 -2.5t-32 -6.5z" />
<glyph unicode="&#xb3;" horiz-adv-x="308" d="M93 489q2 8 8 6q16 -5 36 -8.5t39 -3.5q32 0 51 9t27 32q3 9 5 19t2 19q0 43 -74 43h-23q-7 0 -6 7l4 20q1 6 8 6h19q99 0 99 77q0 37 -56 37q-18 0 -35 -2.5t-31 -7.5q-7 -2 -8 3l-4 22q0 6 6 7q38 11 80 11q40 0 64.5 -15t24.5 -50q0 -15 -3.5 -31t-12 -29.5t-22 -24 t-32.5 -14.5v-2q22 -5 32.5 -19.5t10.5 -33.5q0 -18 -4.5 -37t-12.5 -35q-13 -25 -40.5 -35t-63.5 -10q-22 0 -45.5 3.5t-43.5 10.5q-8 3 -5 9z" />
<glyph unicode="&#xb4;" horiz-adv-x="283" d="M294 715q11 4 16 -6l11 -24q5 -9 0.5 -14.5t-13.5 -8.5l-194 -70q-8 -3 -11 3l-10 25q-3 8 5 11z" />
<glyph unicode="&#xb6;" horiz-adv-x="548" d="M492 654l-149 -765q-3 -10 -13 -10h-27q-11 0 -8 10l149 765h-103l-149 -765q-3 -10 -13 -10h-26q-12 0 -9 10l88 451q-32 2 -59 12t-47 29t-31.5 45.5t-11.5 61.5q0 46 17 84.5t48 66t74 43t95 15.5h260q14 0 11 -12l-5 -22q-2 -6 -4 -7.5t-10 -1.5h-77z" />
<glyph unicode="&#xb7;" horiz-adv-x="189" d="M122 279q-4 -17 -12.5 -25t-28.5 -8h-10q-29 0 -29 20q0 5 1 12t5 28q6 33 40 33h11q30 0 30 -20q0 -3 -1 -10.5t-6 -29.5z" />
<glyph unicode="&#xb8;" horiz-adv-x="230" d="M28 -70q10 3 21.5 4.5t22.5 1.5q26 0 41.5 -15.5t15.5 -44.5q0 -23 -5.5 -42t-19 -32.5t-36.5 -21.5t-58 -8q-17 0 -37.5 3.5t-37.5 9.5q-9 3 -6 11l6 19q3 7 10 4q16 -6 35 -9.5t34 -3.5q35 0 53.5 13t18.5 52q0 29 -34 29q-14 0 -27.5 -2t-24.5 -4q-8 -1 -12 4l-6 8 q-4 5 0 13l38 74q3 6 11 6h20q13 0 6 -12z" />
<glyph unicode="&#xb9;" horiz-adv-x="308" d="M75 455q-7 0 -6 6l3 20q1 6 7 6h83l49 260h-4l-86 -50q-7 -4 -10 1l-12 19q-4 6 2 9l91 52q7 4 12 5t13 1h32q6 0 8.5 -1.5t1.5 -7.5l-56 -288h85q7 0 6 -6l-3 -20q-1 -6 -7 -6h-209z" />
<glyph unicode="&#xba;" horiz-adv-x="315" d="M158 332q43 0 63.5 22.5t31.5 77.5q5 24 8 43t3 35q0 29 -15.5 41.5t-45.5 12.5q-21 0 -36.5 -4.5t-26.5 -16t-18.5 -31t-13.5 -48.5q-5 -23 -8 -44.5t-3 -37.5q0 -50 61 -50zM154 298q-97 0 -97 81q0 14 4 38.5t9 53.5q7 37 18 61.5t27.5 39t39 20.5t52.5 6q97 0 97 -81 q0 -14 -3 -38.5t-10 -53.5q-8 -36 -19 -60.5t-27.5 -39t-38.5 -21t-52 -6.5z" />
<glyph unicode="&#xbb;" horiz-adv-x="449" d="M21 91zM165.005 237.014l-89.9941 104.994q-5 6.99902 2 11.999l13.999 11.999q6.99902 5 11.999 0l110.993 -109.993q8 -8 7 -15.999l-2 -11.999q-2 -7 -4 -11q-2 -3.99902 -6.99902 -7.99902l-155.991 -111.993q-6.99902 -6 -12.999 1l-12.999 15.999 q-5 6.99902 2 11.999zM342.005 237.014l-89.9941 104.994q-5 6.99902 2 11.999l13.999 11.999q6.99902 5 11.999 0l110.993 -109.993q8 -8 7 -15.999l-2 -11.999q-2 -7 -4 -11q-2 -3.99902 -6.99902 -7.99902l-155.991 -111.993q-6.99902 -6 -12.999 1l-12.999 15.999 q-5 6.99902 2 11.999z" />
<glyph unicode="&#xbc;" horiz-adv-x="746" d="M630 86l-16 -80q-1 -6 -8 -6h-27q-7 0 -5 7l16 79h-151q-10 0 -8 9l3 15q2 6 4.5 9.5t7.5 9.5l157 184q7 8 11.5 9.5t14.5 1.5h36q13 0 10 -11l-39 -195h38q7 0 6 -5l-5 -22q-1 -5 -7 -5h-38zM479 118h117l34 170h-5zM60 317q-7 0 -6 6l3 20q1 6 7 6h83l49 260h-4 l-86 -50q-7 -4 -10 1l-12 19q-4 6 2 9l91 52q7 4 12 5t13 1h32q6 0 8.5 -1.5t1.5 -7.5l-56 -288h85q7 0 6 -6l-3 -20q-1 -6 -7 -6h-209zM621 651q4 5 11 5h27q11 0 4 -10l-484 -650q-4 -5 -11 -5h-27q-11 0 -4 10z" />
<glyph unicode="&#xbd;" horiz-adv-x="742" d="M50 0zM617 651q4 5 11 5h27q11 0 4 -10l-484 -650q-4 -5 -11 -5h-27q-11 0 -4 10zM57 318q-7 0 -6 6l3 20q1 6 7 6h83l49 260h-4l-86 -50q-7 -4 -10 1l-12 19q-4 6 2 9l91 52q7 4 12 5t13 1h32q6 0 8.5 -1.5t1.5 -7.5l-56 -288h85q7 0 6 -6l-3 -20q-1 -6 -7 -6h-209z M514 286q-10 -2 -11 6l-3 18q-1 8 7 10q17 5 38 7.5t46 2.5q45 0 72 -16t27 -58q0 -26 -7 -46q-15 -42 -78 -64l-48 -17q-21 -8 -34.5 -16t-22 -18t-13 -23t-8.5 -30l-2 -9h164q7 0 6 -7l-4 -19q-1 -3 -2.5 -4.5t-6.5 -1.5h-192q-10 0 -9 10l4 21q9 52 31 81t71 47l48 17 q32 11 45.5 27.5t13.5 48.5q0 22 -14.5 32t-50.5 10q-17 0 -35 -2.5t-32 -6.5z" />
<glyph unicode="&#xbe;" horiz-adv-x="754" d="M616 86l-16 -80q-1 -6 -8 -6h-27q-7 0 -5 7l16 79h-151q-10 0 -8 9l3 15q2 6 4.5 9.5t7.5 9.5l157 184q7 8 11.5 9.5t14.5 1.5h36q13 0 10 -11l-39 -195h38q7 0 6 -5l-5 -22q-1 -5 -7 -5h-38zM465 118h117l34 170h-5zM607 651q4 5 11 5h27q11 0 4 -10l-484 -650 q-4 -5 -11 -5h-27q-11 0 -4 10zM83 360q2 8 8 6q16 -5 36 -8.5t39 -3.5q32 0 51 9t27 32q3 9 5 19t2 19q0 43 -74 43h-23q-7 0 -6 7l4 20q1 6 8 6h19q99 0 99 77q0 37 -56 37q-18 0 -35 -2.5t-31 -7.5q-7 -2 -8 3l-4 22q0 6 6 7q38 11 80 11q40 0 64.5 -15t24.5 -50 q0 -15 -3.5 -31t-12 -29.5t-22 -24t-32.5 -14.5v-2q22 -5 32.5 -19.5t10.5 -33.5q0 -18 -4.5 -37t-12.5 -35q-13 -25 -40.5 -35t-63.5 -10q-22 0 -45.5 3.5t-43.5 10.5q-8 3 -5 9z" />
<glyph unicode="&#xbf;" horiz-adv-x="396" d="M0 0zM286.006 357.008q11 0 10 -9.99902q-7 -43.9971 -16.999 -76.4951t-24.999 -57.4971q-14.999 -24.998 -36.9971 -43.9971q-21.999 -18.999 -51.9971 -35.998l-39.9971 -21.998q-56.9971 -29.998 -83.4951 -61.9961q-26.499 -31.998 -26.499 -83.9951 q0 -45.9971 28.499 -67.9961q28.498 -21.999 92.4941 -21.999q31.998 0 68.4961 7q36.4971 7 73.4951 17.999q9.99902 3 12.999 -6l5 -18.999q3 -9.99902 -8 -13.999q-36.9971 -12.999 -75.9951 -19.998q-38.9971 -7 -76.9951 -7q-166.99 0 -166.99 124.992 q0 34.998 8.5 61.9961q8.49902 26.999 25.498 48.4971q16.999 21.499 41.498 39.498q24.498 17.999 57.4961 34.998l38.998 20.998q27.998 14.999 47.4971 31.998q19.498 16.999 32.998 37.998q13.499 20.999 21.998 48.4971q8.5 27.498 13.499 63.4961q1 6 3 7.99902 q2 2 10 2h16.998zM304.005 498.999q25.999 0 25.999 -21.998q0 -3 -1 -10.5q-1 -7.49902 -4 -24.498q-4 -19.999 -13.499 -27.998q-9.49902 -8 -25.499 -8h-8.99902q-26.998 0 -26.998 21.999q0 8.99902 5.99902 35.998q5 19.998 13.5 27.498 q8.49902 7.49902 26.498 7.49902h7.99902z" />
<glyph unicode="&#xc0;" horiz-adv-x="552" d="M0 0zM38 11q-2 -5 -5.5 -8t-11.5 -3h-23q-13 0 -7 11q80 177 155.5 330.5t150.5 289.5q5 10 11.5 13t16.5 3h27q8 0 14.5 -3.5t8.5 -14.5q10 -56 20.5 -128t19.5 -153t17 -166.5t14 -169.5q1 -12 -11 -12h-22q-13 0 -13 12q-3 50 -6.5 101t-8.5 102h-254zM327 607 q-48 -91 -91 -176.5t-86 -175.5h231q-10 102 -21 193t-22 159h-11zM393 735q8 -3 5 -11l-10 -25q-3 -6 -11 -3l-194 70q-9 3 -13.5 8.5t0.5 14.5l11 24q5 10 16 6z" />
<glyph unicode="&#xc1;" horiz-adv-x="552" d="M0 0zM38 11q-2 -5 -5.5 -8t-11.5 -3h-23q-13 0 -7 11q80 177 155.5 330.5t150.5 289.5q5 10 11.5 13t16.5 3h27q8 0 14.5 -3.5t8.5 -14.5q10 -56 20.5 -128t19.5 -153t17 -166.5t14 -169.5q1 -12 -11 -12h-22q-13 0 -13 12q-3 50 -6.5 101t-8.5 102h-254zM327 607 q-48 -91 -91 -176.5t-86 -175.5h231q-10 102 -21 193t-22 159h-11zM470 819q11 4 16 -6l11 -24q5 -9 0.5 -14.5t-13.5 -8.5l-194 -70q-8 -3 -11 3l-10 25q-3 8 5 11z" />
<glyph unicode="&#xc2;" horiz-adv-x="552" d="M0 0zM38 11q-2 -5 -5.5 -8t-11.5 -3h-23q-13 0 -7 11q80 177 155.5 330.5t150.5 289.5q5 10 11.5 13t16.5 3h27q8 0 14.5 -3.5t8.5 -14.5q10 -56 20.5 -128t19.5 -153t17 -166.5t14 -169.5q1 -12 -11 -12h-22q-13 0 -13 12q-3 50 -6.5 101t-8.5 102h-254zM327 607 q-48 -91 -91 -176.5t-86 -175.5h231q-10 102 -21 193t-22 159h-11zM489 723q3 -5 3 -7q0 -5 -6 -9l-17 -13q-5 -3 -8 -3q-5 0 -9 6l-84 101h-6l-116 -101q-7 -5 -10 -5t-7 4l-17 17q-4 3 -4 7q0 5 5 9l124 111q10 10 21 10h19q7 0 10.5 -1.5t8.5 -8.5z" />
<glyph unicode="&#xc3;" horiz-adv-x="552" d="M0 0zM38 11q-2 -5 -5.5 -8t-11.5 -3h-23q-13 0 -7 11q80 177 155.5 330.5t150.5 289.5q5 10 11.5 13t16.5 3h27q8 0 14.5 -3.5t8.5 -14.5q10 -56 20.5 -128t19.5 -153t17 -166.5t14 -169.5q1 -12 -11 -12h-22q-13 0 -13 12q-3 50 -6.5 101t-8.5 102h-254zM327 607 q-48 -91 -91 -176.5t-86 -175.5h231q-10 102 -21 193t-22 159h-11zM196 731q-7 5 -2 12q25 40 53 58t54 18q31 0 59 -24l21 -18q20 -17 37 -17t35 15t35 38q6 7 14 1l16 -13q8 -6 1 -15q-25 -35 -50 -55t-55 -20q-32 0 -60 24l-21 18q-11 9 -19 14.5t-19 5.5q-17 0 -32 -12 t-34 -39q-7 -9 -15 -4z" />
<glyph unicode="&#xc4;" horiz-adv-x="552" d="M0 0zM38 11q-2 -5 -5.5 -8t-11.5 -3h-23q-13 0 -7 11q80 177 155.5 330.5t150.5 289.5q5 10 11.5 13t16.5 3h27q8 0 14.5 -3.5t8.5 -14.5q10 -56 20.5 -128t19.5 -153t17 -166.5t14 -169.5q1 -12 -11 -12h-22q-13 0 -13 12q-3 50 -6.5 101t-8.5 102h-254zM327 607 q-48 -91 -91 -176.5t-86 -175.5h231q-10 102 -21 193t-22 159h-11zM294 813q30 0 30 -25q0 -10 -5 -32q-5 -20 -15 -27.5t-30 -7.5h-12q-31 0 -31 23q0 8 5 33q7 36 43 36h15zM455 813q30 0 30 -25q0 -10 -5 -32q-5 -20 -15 -27.5t-30 -7.5h-12q-31 0 -31 23q0 8 5 33 q7 36 43 36h15z" />
<glyph unicode="&#xc5;" horiz-adv-x="552" d="M0 0zM38 11q-2 -5 -5.5 -8t-11.5 -3h-23q-13 0 -7 11q80 177 155.5 330.5t150.5 289.5q5 10 11.5 13t16.5 3h27q8 0 14.5 -3.5t8.5 -14.5q10 -56 20.5 -128t19.5 -153t17 -166.5t14 -169.5q1 -12 -11 -12h-22q-13 0 -13 12q-3 50 -6.5 101t-8.5 102h-254zM327 607 q-48 -91 -91 -176.5t-86 -175.5h231q-10 102 -21 193t-22 159h-11zM267 748q0 46 28.5 73.5t72.5 27.5q39 0 59.5 -21t20.5 -53q0 -26 -8.5 -45t-22.5 -32.5t-31.5 -20t-36.5 -6.5q-38 0 -60 21t-22 56zM363 811q-24 0 -40.5 -15.5t-16.5 -41.5q0 -20 12 -32t34 -12 q24 0 40.5 15.5t16.5 41.5q0 20 -12.5 32t-33.5 12z" />
<glyph unicode="&#xc6;" horiz-adv-x="782" d="M447 0q-49 0 -73.5 18.5t-24.5 59.5q0 14 2 32t6 41l11 64h-205l-132 -204q-4 -5 -7.5 -8t-11.5 -3h-27q-11 0 -4 11q118 182 223 336t197 279q11 14 19.5 17.5t23.5 3.5h334q11 0 9 -10l-4 -21q-2 -6 -4 -7.5t-8 -1.5h-282l-48 -252h256q11 0 9 -10l-5 -22q-2 -5 -4 -7 t-8 -2h-257l-31 -172q-6 -36 -6 -59q0 -42 59 -42h222q10 0 9 -10l-4 -21q-2 -6 -4 -8t-8 -2h-222zM436 608q-66 -89 -126 -176t-120 -177h185l69 353h-8z" />
<glyph unicode="&#xc7;" horiz-adv-x="492" d="M120 365q-13 -71 -20.5 -123t-7.5 -81q0 -35 7.5 -59.5t24.5 -40t45.5 -22.5t69.5 -7q33 0 72.5 8t74.5 22q9 4 12 -6l4 -18q2 -5 1.5 -8.5t-5.5 -5.5q-34 -14 -74.5 -22.5t-76.5 -10.5l-2 -4l-29 -57q10 3 21.5 4.5t22.5 1.5q26 0 41.5 -15.5t15.5 -44.5q0 -23 -5.5 -42 t-19 -32.5t-36.5 -21.5t-58 -8q-17 0 -37.5 3.5t-37.5 9.5q-9 3 -6 11l6 19q3 7 10 4q16 -6 35 -9.5t34 -3.5q35 0 53.5 13t18.5 52q0 29 -34 29q-14 0 -27.5 -2t-24.5 -4q-8 -1 -12 4l-6 8q-4 5 0 13l37 73q-88 5 -126.5 42.5t-38.5 119.5q0 35 9.5 94.5t24.5 141.5 q15 79 38 130.5t55.5 81.5t73 42t90.5 12q44 0 85 -12.5t70 -30.5q10 -6 5 -16l-9 -15q-4 -7 -8 -7t-9 3q-64 37 -135 37q-42 0 -75 -10t-59 -38t-45 -76.5t-33 -125.5z" />
<glyph unicode="&#xc8;" horiz-adv-x="466" d="M33 0zM129 0q-53 0 -74.5 22t-21.5 63q0 11 2 28t6 38q18 100 37 195t42 193q7 29 15.5 49.5t23 33.5t37 19t55.5 6h211q11 0 9 -10l-4 -21q-2 -6 -4 -7.5t-8 -1.5h-210q-36 0 -52.5 -15.5t-26.5 -58.5l-17 -76.5t-22 -101.5h254q11 0 9 -10l-5 -22q-2 -5 -4 -7t-8 -2 h-255q-12 -60 -19 -103t-12 -69q-6 -38 -6 -58q0 -23 13.5 -33t43.5 -10h222q10 0 9 -10l-4 -21q-2 -6 -4 -8t-8 -2h-224zM413 735q8 -3 5 -11l-10 -25q-3 -6 -11 -3l-194 70q-9 3 -13.5 8.5t0.5 14.5l11 24q5 10 16 6z" />
<glyph unicode="&#xc9;" horiz-adv-x="466" d="M33 0zM129 0q-53 0 -74.5 22t-21.5 63q0 11 2 28t6 38q18 100 37 195t42 193q7 29 15.5 49.5t23 33.5t37 19t55.5 6h211q11 0 9 -10l-4 -21q-2 -6 -4 -7.5t-8 -1.5h-210q-36 0 -52.5 -15.5t-26.5 -58.5l-17 -76.5t-22 -101.5h254q11 0 9 -10l-5 -22q-2 -5 -4 -7t-8 -2 h-255q-12 -60 -19 -103t-12 -69q-6 -38 -6 -58q0 -23 13.5 -33t43.5 -10h222q10 0 9 -10l-4 -21q-2 -6 -4 -8t-8 -2h-224zM435 819q11 4 16 -6l11 -24q5 -9 0.5 -14.5t-13.5 -8.5l-194 -70q-8 -3 -11 3l-10 25q-3 8 5 11z" />
<glyph unicode="&#xca;" horiz-adv-x="466" d="M33 0zM129 0q-53 0 -74.5 22t-21.5 63q0 11 2 28t6 38q18 100 37 195t42 193q7 29 15.5 49.5t23 33.5t37 19t55.5 6h211q11 0 9 -10l-4 -21q-2 -6 -4 -7.5t-8 -1.5h-210q-36 0 -52.5 -15.5t-26.5 -58.5l-17 -76.5t-22 -101.5h254q11 0 9 -10l-5 -22q-2 -5 -4 -7t-8 -2 h-255q-12 -60 -19 -103t-12 -69q-6 -38 -6 -58q0 -23 13.5 -33t43.5 -10h222q10 0 9 -10l-4 -21q-2 -6 -4 -8t-8 -2h-224zM470 723q3 -5 3 -7q0 -5 -6 -9l-17 -13q-5 -3 -8 -3q-5 0 -9 6l-84 101h-6l-116 -101q-7 -5 -10 -5t-7 4l-17 17q-4 3 -4 7q0 5 5 9l124 111 q10 10 21 10h19q7 0 10.5 -1.5t8.5 -8.5z" />
<glyph unicode="&#xcb;" horiz-adv-x="466" d="M33 0zM129 0q-53 0 -74.5 22t-21.5 63q0 11 2 28t6 38q18 100 37 195t42 193q7 29 15.5 49.5t23 33.5t37 19t55.5 6h211q11 0 9 -10l-4 -21q-2 -6 -4 -7.5t-8 -1.5h-210q-36 0 -52.5 -15.5t-26.5 -58.5l-17 -76.5t-22 -101.5h254q11 0 9 -10l-5 -22q-2 -5 -4 -7t-8 -2 h-255q-12 -60 -19 -103t-12 -69q-6 -38 -6 -58q0 -23 13.5 -33t43.5 -10h222q10 0 9 -10l-4 -21q-2 -6 -4 -8t-8 -2h-224zM282 813q30 0 30 -25q0 -10 -5 -32q-5 -20 -15 -27.5t-30 -7.5h-12q-31 0 -31 23q0 8 5 33q7 36 43 36h15zM443 813q30 0 30 -25q0 -10 -5 -32 q-5 -20 -15 -27.5t-30 -7.5h-12q-31 0 -31 23q0 8 5 33q7 36 43 36h15z" />
<glyph unicode="&#xcc;" horiz-adv-x="202" d="M12 0zM63 9q-1 -9 -11 -9h-26q-11 0 -9 9l122 629q1 9 11 9h26q10 0 9 -9zM240 735q8 -3 5 -11l-10 -25q-3 -6 -11 -3l-194 70q-9 3 -13.5 8.5t0.5 14.5l11 24q5 10 16 6z" />
<glyph unicode="&#xcd;" horiz-adv-x="202" d="M15 0zM63 9q-1 -9 -11 -9h-26q-11 0 -9 9l122 629q1 9 11 9h26q10 0 9 -9zM301 819q11 4 16 -6l11 -24q5 -9 0.5 -14.5t-13.5 -8.5l-194 -70q-8 -3 -11 3l-10 25q-3 8 5 11z" />
<glyph unicode="&#xce;" horiz-adv-x="202" d="M15 0zM63 9q-1 -9 -11 -9h-26q-11 0 -9 9l122 629q1 9 11 9h26q10 0 9 -9zM317 723q3 -5 3 -7q0 -5 -6 -9l-17 -13q-5 -3 -8 -3q-5 0 -9 6l-84 101h-6l-116 -101q-7 -5 -10 -5t-7 4l-17 17q-4 3 -4 7q0 5 5 9l124 111q10 10 21 10h19q7 0 10.5 -1.5t8.5 -8.5z" />
<glyph unicode="&#xcf;" horiz-adv-x="202" d="M15 0zM63 9q-1 -9 -11 -9h-26q-11 0 -9 9l122 629q1 9 11 9h26q10 0 9 -9zM122 813q30 0 30 -25q0 -10 -5 -32q-5 -20 -15 -27.5t-30 -7.5h-12q-31 0 -31 23q0 8 5 33q7 36 43 36h15zM283 813q30 0 30 -25q0 -10 -5 -32q-5 -20 -15 -27.5t-30 -7.5h-12q-31 0 -31 23 q0 8 5 33q7 36 43 36h15z" />
<glyph unicode="&#xd0;" horiz-adv-x="573" d="M10 0zM45 0q-12 0 -16.5 3.5t-2.5 14.5l58 297h-65q-9 0 -8 7l4 25q1 6 9 6h68l53 268q2 10 6 14.5t15 6.5q26 5 60.5 7.5t65.5 2.5q56 0 100.5 -9t75 -32t47 -61.5t16.5 -97.5q0 -26 -6 -74t-20 -104q-21 -89 -56 -142.5t-83 -83t-107.5 -39t-130.5 -9.5h-83zM289 612 q-26 0 -48.5 -1.5t-36.5 -3.5q-8 -2 -13 -5.5t-7 -14.5l-47 -234h160q9 0 8 -7l-4 -25q-1 -6 -9 -6h-162l-52 -264q-3 -11 7 -11h60q71 0 122.5 12t88.5 40t61.5 74.5t41.5 115.5q11 48 18 93t7 74q0 47 -11.5 78.5t-35 50t-60.5 26.5t-88 8z" />
<glyph unicode="&#xd1;" horiz-adv-x="578" d="M10 0zM522 637q2 10 12 10h24q10 0 7 -11l-117 -606q-3 -17 -10.5 -23.5t-25.5 -6.5h-18q-17 0 -25.5 7t-13.5 24l-176 575h-7l-116 -596q-3 -10 -12 -10h-24q-10 0 -7 11l117 606q3 17 10.5 23.5t25.5 6.5h18q17 0 25.5 -7t13.5 -24l176 -575h7zM212 731q-7 5 -2 12 q25 40 53 58t54 18q31 0 59 -24l21 -18q20 -17 37 -17t35 15t35 38q6 7 14 1l16 -13q8 -6 1 -15q-25 -35 -50 -55t-55 -20q-32 0 -60 24l-21 18q-11 9 -19 14.5t-19 5.5q-17 0 -32 -12t-34 -39q-7 -9 -15 -4z" />
<glyph unicode="&#xd2;" horiz-adv-x="567" d="M40 0zM231 32q42 0 74 10t56 34t42.5 64t34.5 100q9 33 16 66.5t12 65t8 57.5t3 44q0 76 -32 109t-107 33q-44 0 -77.5 -11t-59 -36t-44 -65t-31.5 -97q-17 -71 -27.5 -133t-10.5 -103q0 -70 31.5 -104t111.5 -34zM230 -9q-90 0 -140 38t-50 134q0 48 11.5 112t28.5 142 q13 62 34 107t52.5 74.5t74.5 43.5t101 14q86 0 134.5 -39t48.5 -135q0 -49 -11 -113t-30 -139q-16 -65 -38 -110t-52 -74t-70.5 -42t-93.5 -13zM448 735q8 -3 5 -11l-10 -25q-3 -6 -11 -3l-194 70q-9 3 -13.5 8.5t0.5 14.5l11 24q5 10 16 6z" />
<glyph unicode="&#xd3;" horiz-adv-x="567" d="M40 0zM231 32q42 0 74 10t56 34t42.5 64t34.5 100q9 33 16 66.5t12 65t8 57.5t3 44q0 76 -32 109t-107 33q-44 0 -77.5 -11t-59 -36t-44 -65t-31.5 -97q-17 -71 -27.5 -133t-10.5 -103q0 -70 31.5 -104t111.5 -34zM230 -9q-90 0 -140 38t-50 134q0 48 11.5 112t28.5 142 q13 62 34 107t52.5 74.5t74.5 43.5t101 14q86 0 134.5 -39t48.5 -135q0 -49 -11 -113t-30 -139q-16 -65 -38 -110t-52 -74t-70.5 -42t-93.5 -13zM470 819q11 4 16 -6l11 -24q5 -9 0.5 -14.5t-13.5 -8.5l-194 -70q-8 -3 -11 3l-10 25q-3 8 5 11z" />
<glyph unicode="&#xd4;" horiz-adv-x="567" d="M40 0zM231 32q42 0 74 10t56 34t42.5 64t34.5 100q9 33 16 66.5t12 65t8 57.5t3 44q0 76 -32 109t-107 33q-44 0 -77.5 -11t-59 -36t-44 -65t-31.5 -97q-17 -71 -27.5 -133t-10.5 -103q0 -70 31.5 -104t111.5 -34zM230 -9q-90 0 -140 38t-50 134q0 48 11.5 112t28.5 142 q13 62 34 107t52.5 74.5t74.5 43.5t101 14q86 0 134.5 -39t48.5 -135q0 -49 -11 -113t-30 -139q-16 -65 -38 -110t-52 -74t-70.5 -42t-93.5 -13zM490 723q3 -5 3 -7q0 -5 -6 -9l-17 -13q-5 -3 -8 -3q-5 0 -9 6l-84 101h-6l-116 -101q-7 -5 -10 -5t-7 4l-17 17q-4 3 -4 7 q0 5 5 9l124 111q10 10 21 10h19q7 0 10.5 -1.5t8.5 -8.5z" />
<glyph unicode="&#xd5;" horiz-adv-x="567" d="M40 0zM231 32q42 0 74 10t56 34t42.5 64t34.5 100q9 33 16 66.5t12 65t8 57.5t3 44q0 76 -32 109t-107 33q-44 0 -77.5 -11t-59 -36t-44 -65t-31.5 -97q-17 -71 -27.5 -133t-10.5 -103q0 -70 31.5 -104t111.5 -34zM230 -9q-90 0 -140 38t-50 134q0 48 11.5 112t28.5 142 q13 62 34 107t52.5 74.5t74.5 43.5t101 14q86 0 134.5 -39t48.5 -135q0 -49 -11 -113t-30 -139q-16 -65 -38 -110t-52 -74t-70.5 -42t-93.5 -13zM206 731q-7 5 -2 12q25 40 53 58t54 18q31 0 59 -24l21 -18q20 -17 37 -17t35 15t35 38q6 7 14 1l16 -13q8 -6 1 -15 q-25 -35 -50 -55t-55 -20q-32 0 -60 24l-21 18q-11 9 -19 14.5t-19 5.5q-17 0 -32 -12t-34 -39q-7 -9 -15 -4z" />
<glyph unicode="&#xd6;" horiz-adv-x="567" d="M40 0zM231 32q42 0 74 10t56 34t42.5 64t34.5 100q9 33 16 66.5t12 65t8 57.5t3 44q0 76 -32 109t-107 33q-44 0 -77.5 -11t-59 -36t-44 -65t-31.5 -97q-17 -71 -27.5 -133t-10.5 -103q0 -70 31.5 -104t111.5 -34zM230 -9q-90 0 -140 38t-50 134q0 48 11.5 112t28.5 142 q13 62 34 107t52.5 74.5t74.5 43.5t101 14q86 0 134.5 -39t48.5 -135q0 -49 -11 -113t-30 -139q-16 -65 -38 -110t-52 -74t-70.5 -42t-93.5 -13zM302 813q30 0 30 -25q0 -10 -5 -32q-5 -20 -15 -27.5t-30 -7.5h-12q-31 0 -31 23q0 8 5 33q7 36 43 36h15zM463 813 q30 0 30 -25q0 -10 -5 -32q-5 -20 -15 -27.5t-30 -7.5h-12q-31 0 -31 23q0 8 5 33q7 36 43 36h15z" />
<glyph unicode="&#xd7;" horiz-adv-x="512" d="M251 288l154 129q5 5 12 -1l18 -21q6 -6 -2 -12l-154 -130l100 -125q5 -6 -1 -12l-24 -20q-7 -5 -11 1l-101 126l-153 -128q-6 -6 -12 1l-17 22q-5 6 2 12l152 127l-100 124q-5 6 1 12l24 20q7 5 11 -1z" />
<glyph unicode="&#xd8;" horiz-adv-x="566" d="M229 -9q-32 0 -58.5 4t-47.5 13l-53 -89q-4 -8 -13 -4l-21 12q-4 2 -5 4.5t2 7.5l54 92q-23 20 -34.5 53t-11.5 81q0 46 10.5 109t27.5 143q13 62 34 107t52.5 74.5t74.5 43.5t101 14q60 0 105 -20l55 93q4 8 13 4l21 -12q4 -2 5 -4.5t-2 -7.5l-58 -97q44 -42 44 -130 q0 -49 -11 -113t-30 -139q-16 -65 -38 -110t-52 -74t-70.5 -42t-93.5 -13zM87 170q0 -32 5.5 -56t19.5 -41l310 522q-34 20 -85 20q-44 0 -77.5 -11t-59 -36t-44 -65t-31.5 -97q-17 -71 -27.5 -133t-10.5 -103zM230 32q42 0 74 10t56 34t42.5 64t34.5 100q9 33 16 66.5 t12 65t8 57.5t3 44q0 58 -23 93l-307 -519q31 -15 84 -15z" />
<glyph unicode="&#xd9;" horiz-adv-x="557" d="M38 0zM504 638q1 9 11 9h27q10 0 9 -9l-83 -430q-12 -62 -30 -104t-46.5 -67t-70 -35.5t-99.5 -10.5q-40 0 -74 7.5t-58.5 24.5t-38 45t-13.5 69q0 30 6 63.5t12 63.5l72 374q1 9 11 9h27q10 0 9 -9l-83 -424q-5 -24 -6.5 -43t-1.5 -32q0 -32 11.5 -52.5t31 -32.5t45 -17 t53.5 -5q43 0 75.5 7t56 27t39.5 55.5t27 92.5zM434 735q8 -3 5 -11l-10 -25q-3 -6 -11 -3l-194 70q-9 3 -13.5 8.5t0.5 14.5l11 24q5 10 16 6z" />
<glyph unicode="&#xda;" horiz-adv-x="557" d="M38 0zM504 638q1 9 11 9h27q10 0 9 -9l-83 -430q-12 -62 -30 -104t-46.5 -67t-70 -35.5t-99.5 -10.5q-40 0 -74 7.5t-58.5 24.5t-38 45t-13.5 69q0 30 6 63.5t12 63.5l72 374q1 9 11 9h27q10 0 9 -9l-83 -424q-5 -24 -6.5 -43t-1.5 -32q0 -32 11.5 -52.5t31 -32.5t45 -17 t53.5 -5q43 0 75.5 7t56 27t39.5 55.5t27 92.5zM466 819q11 4 16 -6l11 -24q5 -9 0.5 -14.5t-13.5 -8.5l-194 -70q-8 -3 -11 3l-10 25q-3 8 5 11z" />
<glyph unicode="&#xdb;" horiz-adv-x="557" d="M38 0zM504 638q1 9 11 9h27q10 0 9 -9l-83 -430q-12 -62 -30 -104t-46.5 -67t-70 -35.5t-99.5 -10.5q-40 0 -74 7.5t-58.5 24.5t-38 45t-13.5 69q0 30 6 63.5t12 63.5l72 374q1 9 11 9h27q10 0 9 -9l-83 -424q-5 -24 -6.5 -43t-1.5 -32q0 -32 11.5 -52.5t31 -32.5t45 -17 t53.5 -5q43 0 75.5 7t56 27t39.5 55.5t27 92.5zM491 723q3 -5 3 -7q0 -5 -6 -9l-17 -13q-5 -3 -8 -3q-5 0 -9 6l-84 101h-6l-116 -101q-7 -5 -10 -5t-7 4l-17 17q-4 3 -4 7q0 5 5 9l124 111q10 10 21 10h19q7 0 10.5 -1.5t8.5 -8.5z" />
<glyph unicode="&#xdc;" horiz-adv-x="557" d="M38 0zM504 638q1 9 11 9h27q10 0 9 -9l-83 -430q-12 -62 -30 -104t-46.5 -67t-70 -35.5t-99.5 -10.5q-40 0 -74 7.5t-58.5 24.5t-38 45t-13.5 69q0 30 6 63.5t12 63.5l72 374q1 9 11 9h27q10 0 9 -9l-83 -424q-5 -24 -6.5 -43t-1.5 -32q0 -32 11.5 -52.5t31 -32.5t45 -17 t53.5 -5q43 0 75.5 7t56 27t39.5 55.5t27 92.5zM289 813q30 0 30 -25q0 -10 -5 -32q-5 -20 -15 -27.5t-30 -7.5h-12q-31 0 -31 23q0 8 5 33q7 36 43 36h15zM450 813q30 0 30 -25q0 -10 -5 -32q-5 -20 -15 -27.5t-30 -7.5h-12q-31 0 -31 23q0 8 5 33q7 36 43 36h15z" />
<glyph unicode="&#xdd;" horiz-adv-x="435" d="M71 0zM175 9q-1 -9 -11 -9h-27q-10 0 -9 9l43 218q-40 103 -64.5 202t-35.5 210q0 8 9 8h27q10 0 11 -8q8 -102 30.5 -194t50.5 -167h8q33 44 62.5 86.5t57 86.5t53.5 90.5t52 99.5q3 6 11 6h29q10 0 7 -8q-27 -53 -54.5 -103t-58.5 -100t-67.5 -102t-81.5 -110zM408 819 q11 4 16 -6l11 -24q5 -9 0.5 -14.5t-13.5 -8.5l-194 -70q-8 -3 -11 3l-10 25q-3 8 5 11z" />
<glyph unicode="&#xde;" horiz-adv-x="483" d="M138 651q1 9 11 9h26q10 0 9 -9l-21 -101q39 6 84 6q44 0 80 -7t61 -23.5t38.5 -44t13.5 -69.5q0 -32 -9 -77q-20 -97 -85.5 -138t-171.5 -41h-87l-28 -147q-1 -9 -11 -9h-26q-11 0 -9 9zM95 197h80q96 0 143 33.5t65 108.5q5 18 6.5 34.5t1.5 29.5q0 64 -35.5 88 t-113.5 24q-27 0 -49.5 -2.5t-38.5 -6.5z" />
<glyph unicode="&#xdf;" horiz-adv-x="492" d="M113 506q10 51 27.5 85.5t42.5 55.5t57.5 30t71.5 9q66 0 108 -31t42 -101q0 -72 -33.5 -123.5t-101.5 -68.5v-3q46 -6 77 -35t31 -88q0 -31 -5 -58.5t-13 -52.5q-23 -68 -68 -101t-124 -33q-26 0 -52 3t-46 9q-6 2 -7 4.5t1 7.5l6 20q3 10 12 7q17 -5 40.5 -8.5 t44.5 -3.5q63 0 99.5 27.5t53.5 84.5q5 16 9 42.5t4 49.5q0 52 -32 78.5t-105 26.5h-24q-13 0 -10 10l4 20q1 9 12 9h10q44 0 77 13t54.5 36t32 55t10.5 70q0 55 -30.5 75t-78.5 20q-70 0 -104.5 -35.5t-47.5 -104.5l-69 -360q-11 -57 -26 -109.5t-32 -93.5q-3 -8 -12 -8 h-23q-10 0 -6 9q17 48 31 98t24 101z" />
<glyph unicode="&#xe0;" horiz-adv-x="456" d="M16 0zM332 239q-17 2 -35.5 3.5t-40.5 1.5h-56q-64 0 -93 -22q-11 -8 -18.5 -20t-12.5 -27q-6 -19 -11 -41.5t-5 -42.5q0 -32 20.5 -46.5t66.5 -14.5h9q68 0 109 33.5t52 94.5zM296 53q-22 -30 -57 -46t-89 -16h-11q-68 0 -95.5 24t-27.5 70q0 23 5.5 50t13.5 53 q7 21 19 38.5t29 28.5q41 28 129 28h48q18 0 40 -1.5t39 -4.5l7 36q11 53 11 79q0 38 -24.5 53t-80.5 15q-30 0 -64.5 -6t-63.5 -15q-11 -3 -12 5l-3 22q-1 9 7 11q33 10 70 16t75 6q27 0 52 -4.5t44.5 -15.5t31 -30t12.5 -47q0 -16 -4.5 -44.5t-9.5 -57.5l-55 -292 q-1 -8 -9 -8h-23q-10 0 -8 10l6 43h-2zM373 631q8 -3 5 -11l-10 -25q-3 -6 -11 -3l-194 70q-9 3 -13.5 8.5t0.5 14.5l11 24q5 10 16 6z" />
<glyph unicode="&#xe1;" horiz-adv-x="456" d="M16 0zM332 239q-17 2 -35.5 3.5t-40.5 1.5h-56q-64 0 -93 -22q-11 -8 -18.5 -20t-12.5 -27q-6 -19 -11 -41.5t-5 -42.5q0 -32 20.5 -46.5t66.5 -14.5h9q68 0 109 33.5t52 94.5zM296 53q-22 -30 -57 -46t-89 -16h-11q-68 0 -95.5 24t-27.5 70q0 23 5.5 50t13.5 53 q7 21 19 38.5t29 28.5q41 28 129 28h48q18 0 40 -1.5t39 -4.5l7 36q11 53 11 79q0 38 -24.5 53t-80.5 15q-30 0 -64.5 -6t-63.5 -15q-11 -3 -12 5l-3 22q-1 9 7 11q33 10 70 16t75 6q27 0 52 -4.5t44.5 -15.5t31 -30t12.5 -47q0 -16 -4.5 -44.5t-9.5 -57.5l-55 -292 q-1 -8 -9 -8h-23q-10 0 -8 10l6 43h-2zM396 715q11 4 16 -6l11 -24q5 -9 0.5 -14.5t-13.5 -8.5l-194 -70q-8 -3 -11 3l-10 25q-3 8 5 11z" />
<glyph unicode="&#xe2;" horiz-adv-x="456" d="M16 0zM332 239q-17 2 -35.5 3.5t-40.5 1.5h-56q-64 0 -93 -22q-11 -8 -18.5 -20t-12.5 -27q-6 -19 -11 -41.5t-5 -42.5q0 -32 20.5 -46.5t66.5 -14.5h9q68 0 109 33.5t52 94.5zM296 53q-22 -30 -57 -46t-89 -16h-11q-68 0 -95.5 24t-27.5 70q0 23 5.5 50t13.5 53 q7 21 19 38.5t29 28.5q41 28 129 28h48q18 0 40 -1.5t39 -4.5l7 36q11 53 11 79q0 38 -24.5 53t-80.5 15q-30 0 -64.5 -6t-63.5 -15q-11 -3 -12 5l-3 22q-1 9 7 11q33 10 70 16t75 6q27 0 52 -4.5t44.5 -15.5t31 -30t12.5 -47q0 -16 -4.5 -44.5t-9.5 -57.5l-55 -292 q-1 -8 -9 -8h-23q-10 0 -8 10l6 43h-2zM432 618q6 -9 -3 -16l-17 -13q-10 -6 -17 3l-84 101h-6l-116 -101q-6 -5 -10 -4.5t-7 3.5l-17 17q-9 7 1 16l124 111q10 10 21 10h19q7 0 10.5 -1.5t8.5 -8.5z" />
<glyph unicode="&#xe3;" horiz-adv-x="456" d="M16 0zM332 239q-17 2 -35.5 3.5t-40.5 1.5h-56q-64 0 -93 -22q-11 -8 -18.5 -20t-12.5 -27q-6 -19 -11 -41.5t-5 -42.5q0 -32 20.5 -46.5t66.5 -14.5h9q68 0 109 33.5t52 94.5zM296 53q-22 -30 -57 -46t-89 -16h-11q-68 0 -95.5 24t-27.5 70q0 23 5.5 50t13.5 53 q7 21 19 38.5t29 28.5q41 28 129 28h48q18 0 40 -1.5t39 -4.5l7 36q11 53 11 79q0 38 -24.5 53t-80.5 15q-30 0 -64.5 -6t-63.5 -15q-11 -3 -12 5l-3 22q-1 9 7 11q33 10 70 16t75 6q27 0 52 -4.5t44.5 -15.5t31 -30t12.5 -47q0 -16 -4.5 -44.5t-9.5 -57.5l-55 -292 q-1 -8 -9 -8h-23q-10 0 -8 10l6 43h-2zM142 624q-7 5 -2 12q25 40 53 58t54 18q31 0 59 -24l21 -18q20 -17 37 -17t35 15t35 38q6 7 14 1l16 -13q8 -6 1 -15q-25 -35 -50 -55t-55 -20q-32 0 -60 24l-21 18q-11 9 -19 14.5t-19 5.5q-17 0 -32 -12t-34 -39q-7 -9 -15 -4z" />
<glyph unicode="&#xe4;" horiz-adv-x="456" d="M16 0zM332 239q-17 2 -35.5 3.5t-40.5 1.5h-56q-64 0 -93 -22q-11 -8 -18.5 -20t-12.5 -27q-6 -19 -11 -41.5t-5 -42.5q0 -32 20.5 -46.5t66.5 -14.5h9q68 0 109 33.5t52 94.5zM296 53q-22 -30 -57 -46t-89 -16h-11q-68 0 -95.5 24t-27.5 70q0 23 5.5 50t13.5 53 q7 21 19 38.5t29 28.5q41 28 129 28h48q18 0 40 -1.5t39 -4.5l7 36q11 53 11 79q0 38 -24.5 53t-80.5 15q-30 0 -64.5 -6t-63.5 -15q-11 -3 -12 5l-3 22q-1 9 7 11q33 10 70 16t75 6q27 0 52 -4.5t44.5 -15.5t31 -30t12.5 -47q0 -16 -4.5 -44.5t-9.5 -57.5l-55 -292 q-1 -8 -9 -8h-23q-10 0 -8 10l6 43h-2zM234 704q30 0 30 -25q0 -10 -5 -32q-5 -20 -15 -27.5t-30 -7.5h-12q-31 0 -31 23q0 8 5 33q7 36 43 36h15zM395 704q30 0 30 -25q0 -10 -5 -32q-5 -20 -15 -27.5t-30 -7.5h-12q-31 0 -31 23q0 8 5 33q7 36 43 36h15z" />
<glyph unicode="&#xe5;" horiz-adv-x="456" d="M16 0zM332 239q-17 2 -35.5 3.5t-40.5 1.5h-56q-64 0 -93 -22q-11 -8 -18.5 -20t-12.5 -27q-6 -19 -11 -41.5t-5 -42.5q0 -32 20.5 -46.5t66.5 -14.5h9q68 0 109 33.5t52 94.5zM296 53q-22 -30 -57 -46t-89 -16h-11q-68 0 -95.5 24t-27.5 70q0 23 5.5 50t13.5 53 q7 21 19 38.5t29 28.5q41 28 129 28h48q18 0 40 -1.5t39 -4.5l7 36q11 53 11 79q0 38 -24.5 53t-80.5 15q-30 0 -64.5 -6t-63.5 -15q-11 -3 -12 5l-3 22q-1 9 7 11q33 10 70 16t75 6q27 0 52 -4.5t44.5 -15.5t31 -30t12.5 -47q0 -16 -4.5 -44.5t-9.5 -57.5l-55 -292 q-1 -8 -9 -8h-23q-10 0 -8 10l6 43h-2zM202 641q0 46 28.5 73.5t72.5 27.5q39 0 59.5 -21t20.5 -53q0 -26 -8.5 -45t-22.5 -32.5t-31.5 -20t-36.5 -6.5q-38 0 -60 21t-22 56zM298 704q-24 0 -40.5 -15.5t-16.5 -41.5q0 -20 12 -32t34 -12q24 0 40.5 15.5t16.5 41.5 q0 20 -12.5 32t-33.5 12z" />
<glyph unicode="&#xe6;" horiz-adv-x="724" d="M662 231q-2 -7 -6 -11.5t-15 -4.5h-270q-9 -51 -9 -88q0 -27 6 -45.5t20 -30t37 -16.5t57 -5q30 0 67 7t63 17q10 4 11 -5l4 -19q1 -8 -7 -12q-34 -13 -72 -20t-72 -7q-74 0 -110 23t-41 63q-11 -27 -28.5 -44t-40 -26t-49.5 -12.5t-57 -3.5h-13q-68 0 -94.5 23t-26.5 69 q0 26 5.5 57t14.5 57q8 23 21 39.5t32.5 27t46.5 15t64 4.5h60q18 0 40 -1.5t39 -4.5l5 27q5 26 9 48.5t4 39.5q0 38 -25 53t-81 15q-32 0 -65 -6t-62 -15q-11 -3 -12 5l-3 22q-1 9 7 11q33 10 71 16t76 6q22 0 42 -2.5t37.5 -9t30.5 -18t20 -30.5q23 32 60 46t89 14 q74 0 107.5 -30t33.5 -90q0 -14 -2 -32t-5 -37.5t-6.5 -40t-7.5 -38.5zM332 239q-17 2 -36 3.5t-41 1.5h-64q-51 0 -77 -14t-37 -46q-8 -22 -12.5 -47t-4.5 -48q0 -32 19.5 -45.5t65.5 -13.5h11q38 0 65.5 7t46.5 22t31 39.5t18 59.5zM609 253q12 0 15 14q7 32 11 59.5 t4 47.5q0 48 -26.5 67t-76.5 19q-32 0 -56 -6.5t-42 -23.5t-30 -46.5t-20 -74.5l-10 -56h231z" />
<glyph unicode="&#xe7;" horiz-adv-x="408" d="M103 297q-5 -22 -10 -45.5t-9 -46.5t-6 -43.5t-2 -35.5q0 -51 26.5 -73.5t89.5 -22.5q12 0 27.5 2t32 5.5t32.5 8t29 10.5q8 3 11 -5l4 -19q2 -5 1 -8t-9 -6q-25 -11 -59.5 -18t-66.5 -9l-31 -61q10 3 21.5 4.5t22.5 1.5q26 0 41.5 -15.5t15.5 -44.5q0 -23 -5.5 -42 t-19 -32.5t-36.5 -21.5t-58 -8q-17 0 -37.5 3.5t-37.5 9.5q-9 3 -6 11l6 19q3 7 10 4q16 -6 35 -9.5t34 -3.5q35 0 53.5 13t18.5 52q0 29 -34 29q-14 0 -27.5 -2t-24.5 -4q-8 -1 -12 4l-6 8q-4 5 0 13l37 73q-60 5 -91.5 35t-31.5 95q0 15 2.5 36.5t6.5 46t9.5 50t10.5 49.5 q7 31 14 55t16 42t19.5 32t24.5 26q23 20 55 30t77 10q35 0 68.5 -8.5t59.5 -23.5q9 -5 5 -14l-9 -18q-4 -8 -15 -3q-25 12 -55 20t-59 8t-53.5 -7.5t-41.5 -22.5q-21 -18 -35.5 -48t-27.5 -85z" />
<glyph unicode="&#xe8;" horiz-adv-x="436" d="M31 0zM374 231q-2 -7 -6 -11.5t-15 -4.5h-270q-9 -51 -9 -88q0 -27 6 -45.5t20 -30t37 -16.5t57 -5q30 0 67 8t63 17q10 4 11 -5l4 -20q1 -8 -7 -12q-34 -13 -72 -20t-72 -7q-46 0 -76 9t-48 26t-25.5 41t-7.5 55q0 18 3 45t7.5 56t10 57.5t9.5 49.5q18 91 61 130 q24 21 57 30t75 9q73 0 107 -31t34 -89q0 -14 -2 -32t-5 -37.5t-6.5 -40t-7.5 -38.5zM321 253q12 0 15 14q7 32 11 59.5t4 47.5q0 48 -26.5 67t-76.5 19q-32 0 -56 -6.5t-42 -23.5t-30 -46.5t-20 -74.5l-10 -56h231zM353 631q8 -3 5 -11l-10 -25q-3 -6 -11 -3l-194 70 q-9 3 -13.5 8.5t0.5 14.5l11 24q5 10 16 6z" />
<glyph unicode="&#xe9;" horiz-adv-x="436" d="M31 0zM374 231q-2 -7 -6 -11.5t-15 -4.5h-270q-9 -51 -9 -88q0 -27 6 -45.5t20 -30t37 -16.5t57 -5q30 0 67 8t63 17q10 4 11 -5l4 -20q1 -8 -7 -12q-34 -13 -72 -20t-72 -7q-46 0 -76 9t-48 26t-25.5 41t-7.5 55q0 18 3 45t7.5 56t10 57.5t9.5 49.5q18 91 61 130 q24 21 57 30t75 9q73 0 107 -31t34 -89q0 -14 -2 -32t-5 -37.5t-6.5 -40t-7.5 -38.5zM321 253q12 0 15 14q7 32 11 59.5t4 47.5q0 48 -26.5 67t-76.5 19q-32 0 -56 -6.5t-42 -23.5t-30 -46.5t-20 -74.5l-10 -56h231zM389 715q11 4 16 -6l11 -24q5 -9 0.5 -14.5t-13.5 -8.5 l-194 -70q-8 -3 -11 3l-10 25q-3 8 5 11z" />
<glyph unicode="&#xea;" horiz-adv-x="436" d="M31 0zM374 231q-2 -7 -6 -11.5t-15 -4.5h-270q-9 -51 -9 -88q0 -27 6 -45.5t20 -30t37 -16.5t57 -5q30 0 67 8t63 17q10 4 11 -5l4 -20q1 -8 -7 -12q-34 -13 -72 -20t-72 -7q-46 0 -76 9t-48 26t-25.5 41t-7.5 55q0 18 3 45t7.5 56t10 57.5t9.5 49.5q18 91 61 130 q24 21 57 30t75 9q73 0 107 -31t34 -89q0 -14 -2 -32t-5 -37.5t-6.5 -40t-7.5 -38.5zM321 253q12 0 15 14q7 32 11 59.5t4 47.5q0 48 -26.5 67t-76.5 19q-32 0 -56 -6.5t-42 -23.5t-30 -46.5t-20 -74.5l-10 -56h231zM410 618q6 -9 -3 -16l-17 -13q-10 -6 -17 3l-84 101h-6 l-116 -101q-6 -5 -10 -4.5t-7 3.5l-17 17q-9 7 1 16l124 111q10 10 21 10h19q7 0 10.5 -1.5t8.5 -8.5z" />
<glyph unicode="&#xeb;" horiz-adv-x="436" d="M31 0zM374 231q-2 -7 -6 -11.5t-15 -4.5h-270q-9 -51 -9 -88q0 -27 6 -45.5t20 -30t37 -16.5t57 -5q30 0 67 8t63 17q10 4 11 -5l4 -20q1 -8 -7 -12q-34 -13 -72 -20t-72 -7q-46 0 -76 9t-48 26t-25.5 41t-7.5 55q0 18 3 45t7.5 56t10 57.5t9.5 49.5q18 91 61 130 q24 21 57 30t75 9q73 0 107 -31t34 -89q0 -14 -2 -32t-5 -37.5t-6.5 -40t-7.5 -38.5zM321 253q12 0 15 14q7 32 11 59.5t4 47.5q0 48 -26.5 67t-76.5 19q-32 0 -56 -6.5t-42 -23.5t-30 -46.5t-20 -74.5l-10 -56h231zM215 704q30 0 30 -25q0 -10 -5 -32q-5 -20 -15 -27.5 t-30 -7.5h-12q-31 0 -31 23q0 8 5 33q7 36 43 36h15zM376 704q30 0 30 -25q0 -10 -5 -32q-5 -20 -15 -27.5t-30 -7.5h-12q-31 0 -31 23q0 8 5 33q7 36 43 36h15z" />
<glyph unicode="&#xec;" horiz-adv-x="218" d="M0 0zM77 7q-1 -7 -9 -7h-29q-7 0 -6 7l92 476q1 7 9 7h29q7 0 6 -7zM224 631q8 -3 5 -11l-10 -25q-3 -6 -11 -3l-194 70q-9 3 -13.5 8.5t0.5 14.5l11 24q5 10 16 6z" />
<glyph unicode="&#xed;" horiz-adv-x="218" d="M32 0zM77 7q-1 -7 -9 -7h-29q-7 0 -6 7l92 476q1 7 9 7h29q7 0 6 -7zM300 715q11 4 16 -6l11 -24q5 -9 0.5 -14.5t-13.5 -8.5l-194 -70q-8 -3 -11 3l-10 25q-3 8 5 11z" />
<glyph unicode="&#xee;" horiz-adv-x="218" d="M24 0zM77 7q-1 -7 -9 -7h-29q-7 0 -6 7l92 476q1 7 9 7h29q7 0 6 -7zM310 618q6 -9 -3 -16l-17 -13q-10 -6 -17 3l-84 101h-6l-116 -101q-6 -5 -10 -4.5t-7 3.5l-17 17q-9 7 1 16l124 111q10 10 21 10h19q7 0 10.5 -1.5t8.5 -8.5z" />
<glyph unicode="&#xef;" horiz-adv-x="218" d="M32 0zM77 7q-1 -7 -9 -7h-29q-7 0 -6 7l92 476q1 7 9 7h29q7 0 6 -7zM113 704q30 0 30 -25q0 -10 -5 -32q-5 -20 -15 -27.5t-30 -7.5h-12q-31 0 -31 23q0 8 5 33q7 36 43 36h15zM274 704q30 0 30 -25q0 -10 -5 -32q-5 -20 -15 -27.5t-30 -7.5h-12q-31 0 -31 23q0 8 5 33 q7 36 43 36h15z" />
<glyph unicode="&#xf0;" horiz-adv-x="454" d="M195 695q23 -12 42 -24.5t37 -26.5l83 47q9 5 13 -2l9 -15q4 -9 -3 -13l-74 -43q74 -72 89 -183q3 -23 4.5 -46t1 -49t-4 -55.5t-9.5 -66.5q-9 -53 -21 -95.5t-34 -72t-57 -45t-90 -15.5q-79 0 -113.5 34.5t-34.5 91.5q0 26 6.5 73t15.5 101q16 91 56.5 131.5t116.5 40.5 q42 0 75.5 -15.5t49.5 -41.5h2q-7 63 -28.5 112t-59.5 81l-96 -55q-8 -5 -13 4l-9 16q-3 7 6 13l83 47q-15 11 -30.5 20.5t-34.5 19.5q-8 4 -3 11l12 17q5 8 13 4zM230 423q-56 0 -87 -29.5t-45 -107.5q-8 -47 -14.5 -89t-6.5 -74q0 -46 22.5 -70t86.5 -24q41 0 67.5 12 t43 36t26 59t18.5 81q5 25 7.5 46.5t2.5 38.5q0 57 -30 89t-91 32z" />
<glyph unicode="&#xf1;" horiz-adv-x="485" d="M17 0zM146 434q22 30 59.5 47.5t97.5 17.5q67 0 96 -28t29 -79q0 -23 -5.5 -57t-13.5 -75l-48 -253q-1 -7 -9 -7h-27q-8 0 -7 8l55 286q6 31 9 52t3 36q0 38 -21 58t-72 20q-32 0 -60 -7.5t-50.5 -26t-38.5 -49t-25 -75.5l-57 -295q-1 -7 -9 -7h-27q-8 0 -7 8l92 477 q1 5 7 5h26q7 0 6 -7l-5 -49h2zM156 624q-7 5 -2 12q25 40 53 58t54 18q31 0 59 -24l21 -18q20 -17 37 -17t35 15t35 38q6 7 14 1l16 -13q8 -6 1 -15q-25 -35 -50 -55t-55 -20q-32 0 -60 24l-21 18q-11 9 -19 14.5t-19 5.5q-17 0 -32 -12t-34 -39q-7 -9 -15 -4z" />
<glyph unicode="&#xf2;" d="M31 0zM184 30q37 0 63.5 9.5t45.5 30.5t32.5 55.5t24.5 84.5q11 48 16.5 88.5t5.5 64.5q0 50 -24 73.5t-84 23.5q-38 0 -64.5 -9.5t-45.5 -30.5t-32 -55.5t-24 -84.5q-11 -48 -16.5 -88.5t-5.5 -64.5q0 -45 22.5 -71t85.5 -26zM177 -9q-78 0 -112 33t-34 98 q0 34 6.5 75.5t19.5 101.5q12 56 30 94.5t43.5 62t60.5 33.5t81 10q75 0 110 -33t35 -91q0 -33 -6 -80.5t-20 -103.5q-13 -54 -30 -92t-42 -62t-59.5 -35t-82.5 -11zM377 631q8 -3 5 -11l-10 -25q-3 -6 -11 -3l-194 70q-9 3 -13.5 8.5t0.5 14.5l11 24q5 10 16 6z" />
<glyph unicode="&#xf3;" d="M31 0zM184 30q37 0 63.5 9.5t45.5 30.5t32.5 55.5t24.5 84.5q11 48 16.5 88.5t5.5 64.5q0 50 -24 73.5t-84 23.5q-38 0 -64.5 -9.5t-45.5 -30.5t-32 -55.5t-24 -84.5q-11 -48 -16.5 -88.5t-5.5 -64.5q0 -45 22.5 -71t85.5 -26zM177 -9q-78 0 -112 33t-34 98 q0 34 6.5 75.5t19.5 101.5q12 56 30 94.5t43.5 62t60.5 33.5t81 10q75 0 110 -33t35 -91q0 -33 -6 -80.5t-20 -103.5q-13 -54 -30 -92t-42 -62t-59.5 -35t-82.5 -11zM407 715q11 4 16 -6l11 -24q5 -9 0.5 -14.5t-13.5 -8.5l-194 -70q-8 -3 -11 3l-10 25q-3 8 5 11z" />
<glyph unicode="&#xf4;" d="M31 0zM184 30q37 0 63.5 9.5t45.5 30.5t32.5 55.5t24.5 84.5q11 48 16.5 88.5t5.5 64.5q0 50 -24 73.5t-84 23.5q-38 0 -64.5 -9.5t-45.5 -30.5t-32 -55.5t-24 -84.5q-11 -48 -16.5 -88.5t-5.5 -64.5q0 -45 22.5 -71t85.5 -26zM177 -9q-78 0 -112 33t-34 98 q0 34 6.5 75.5t19.5 101.5q12 56 30 94.5t43.5 62t60.5 33.5t81 10q75 0 110 -33t35 -91q0 -33 -6 -80.5t-20 -103.5q-13 -54 -30 -92t-42 -62t-59.5 -35t-82.5 -11zM434 618q6 -9 -3 -16l-17 -13q-10 -6 -17 3l-84 101h-6l-116 -101q-6 -5 -10 -4.5t-7 3.5l-17 17 q-9 7 1 16l124 111q10 10 21 10h19q7 0 10.5 -1.5t8.5 -8.5z" />
<glyph unicode="&#xf5;" d="M31 0zM184 30q37 0 63.5 9.5t45.5 30.5t32.5 55.5t24.5 84.5q11 48 16.5 88.5t5.5 64.5q0 50 -24 73.5t-84 23.5q-38 0 -64.5 -9.5t-45.5 -30.5t-32 -55.5t-24 -84.5q-11 -48 -16.5 -88.5t-5.5 -64.5q0 -45 22.5 -71t85.5 -26zM177 -9q-78 0 -112 33t-34 98 q0 34 6.5 75.5t19.5 101.5q12 56 30 94.5t43.5 62t60.5 33.5t81 10q75 0 110 -33t35 -91q0 -33 -6 -80.5t-20 -103.5q-13 -54 -30 -92t-42 -62t-59.5 -35t-82.5 -11zM141 624q-7 5 -2 12q25 40 53 58t54 18q31 0 59 -24l21 -18q20 -17 37 -17t35 15t35 38q6 7 14 1l16 -13 q8 -6 1 -15q-25 -35 -50 -55t-55 -20q-32 0 -60 24l-21 18q-11 9 -19 14.5t-19 5.5q-17 0 -32 -12t-34 -39q-7 -9 -15 -4z" />
<glyph unicode="&#xf6;" d="M31 0zM184 30q37 0 63.5 9.5t45.5 30.5t32.5 55.5t24.5 84.5q11 48 16.5 88.5t5.5 64.5q0 50 -24 73.5t-84 23.5q-38 0 -64.5 -9.5t-45.5 -30.5t-32 -55.5t-24 -84.5q-11 -48 -16.5 -88.5t-5.5 -64.5q0 -45 22.5 -71t85.5 -26zM177 -9q-78 0 -112 33t-34 98 q0 34 6.5 75.5t19.5 101.5q12 56 30 94.5t43.5 62t60.5 33.5t81 10q75 0 110 -33t35 -91q0 -33 -6 -80.5t-20 -103.5q-13 -54 -30 -92t-42 -62t-59.5 -35t-82.5 -11zM237 704q30 0 30 -25q0 -10 -5 -32q-5 -20 -15 -27.5t-30 -7.5h-12q-31 0 -31 23q0 8 5 33q7 36 43 36h15z M398 704q30 0 30 -25q0 -10 -5 -32q-5 -20 -15 -27.5t-30 -7.5h-12q-31 0 -31 23q0 8 5 33q7 36 43 36h15z" />
<glyph unicode="&#xf7;" horiz-adv-x="512" d="M319 421q-3 -17 -11 -25t-31 -8h-14q-32 0 -32 22q0 4 1 11.5t5 27.5q3 17 12.5 25t29.5 8h14q18 0 25 -5.5t7 -16.5q0 -4 -1 -11.5t-5 -27.5zM48 240q-7 0 -6 7l6 29q1 7 8 7h391q7 0 6 -7l-6 -29q-1 -7 -8 -7h-391zM252 74q-3 -17 -11 -25t-31 -8h-14q-32 0 -32 22 q0 4 1 11.5t5 27.5q3 17 12.5 25t29.5 8h14q18 0 25 -5.5t7 -16.5q0 -4 -1 -11.5t-5 -27.5z" />
<glyph unicode="&#xf8;" d="M177 -9q-52 0 -87 16l-43 -66q-4 -7 -11 -4l-18 10q-7 4 -2 10l46 70q-31 31 -31 95q0 34 6.5 75.5t19.5 101.5q12 56 30 94.5t43.5 62t60.5 33.5t81 10q27 0 48.5 -5t38.5 -13l49 74q4 7 11 4l18 -10q7 -4 2 -10l-52 -79q30 -32 30 -85q0 -33 -6 -80.5t-20 -103.5 q-13 -54 -30 -92t-42 -62t-59.5 -35t-82.5 -11zM76 127q0 -36 13 -59l247 377q-26 15 -72 15q-38 0 -64.5 -9.5t-45.5 -30.5t-32 -55.5t-24 -84.5q-11 -48 -16.5 -88.5t-5.5 -64.5zM184 30q37 0 63.5 9.5t45.5 30.5t32.5 55.5t24.5 84.5q11 48 16.5 88.5t5.5 64.5 q0 35 -12 56l-246 -375q26 -14 70 -14z" />
<glyph unicode="&#xf9;" horiz-adv-x="476" d="M36 0zM384 168q-11 -53 -25.5 -88t-40.5 -55q-23 -19 -54.5 -26.5t-84.5 -7.5q-74 0 -108.5 28t-34.5 85q0 10 1.5 25.5t6.5 37.5l60 316q1 7 9 7h28q7 0 6 -7l-60 -311q-8 -38 -8 -65q0 -38 24 -57.5t82 -19.5q39 0 63 6t42 21q20 17 32 46t21 74l59 306q1 7 9 7h28 q7 0 6 -7zM368 631q8 -3 5 -11l-10 -25q-3 -6 -11 -3l-194 70q-9 3 -13.5 8.5t0.5 14.5l11 24q5 10 16 6z" />
<glyph unicode="&#xfa;" horiz-adv-x="476" d="M36 0zM384 168q-11 -53 -25.5 -88t-40.5 -55q-23 -19 -54.5 -26.5t-84.5 -7.5q-74 0 -108.5 28t-34.5 85q0 10 1.5 25.5t6.5 37.5l60 316q1 7 9 7h28q7 0 6 -7l-60 -311q-8 -38 -8 -65q0 -38 24 -57.5t82 -19.5q39 0 63 6t42 21q20 17 32 46t21 74l59 306q1 7 9 7h28 q7 0 6 -7zM412 715q11 4 16 -6l11 -24q5 -9 0.5 -14.5t-13.5 -8.5l-194 -70q-8 -3 -11 3l-10 25q-3 8 5 11z" />
<glyph unicode="&#xfb;" horiz-adv-x="476" d="M36 0zM384 168q-11 -53 -25.5 -88t-40.5 -55q-23 -19 -54.5 -26.5t-84.5 -7.5q-74 0 -108.5 28t-34.5 85q0 10 1.5 25.5t6.5 37.5l60 316q1 7 9 7h28q7 0 6 -7l-60 -311q-8 -38 -8 -65q0 -38 24 -57.5t82 -19.5q39 0 63 6t42 21q20 17 32 46t21 74l59 306q1 7 9 7h28 q7 0 6 -7zM428 618q6 -9 -3 -16l-17 -13q-10 -6 -17 3l-84 101h-6l-116 -101q-6 -5 -10 -4.5t-7 3.5l-17 17q-9 7 1 16l124 111q10 10 21 10h19q7 0 10.5 -1.5t8.5 -8.5z" />
<glyph unicode="&#xfc;" horiz-adv-x="476" d="M36 0zM384 168q-11 -53 -25.5 -88t-40.5 -55q-23 -19 -54.5 -26.5t-84.5 -7.5q-74 0 -108.5 28t-34.5 85q0 10 1.5 25.5t6.5 37.5l60 316q1 7 9 7h28q7 0 6 -7l-60 -311q-8 -38 -8 -65q0 -38 24 -57.5t82 -19.5q39 0 63 6t42 21q20 17 32 46t21 74l59 306q1 7 9 7h28 q7 0 6 -7zM232 704q30 0 30 -25q0 -10 -5 -32q-5 -20 -15 -27.5t-30 -7.5h-12q-31 0 -31 23q0 8 5 33q7 36 43 36h15zM393 704q30 0 30 -25q0 -10 -5 -32q-5 -20 -15 -27.5t-30 -7.5h-12q-31 0 -31 23q0 8 5 33q7 36 43 36h15z" />
<glyph unicode="&#xfd;" horiz-adv-x="395" d="M44 0zM49 -146q22 37 44.5 77t44.5 81q-24 2 -37.5 14.5t-18.5 42.5q-6 42 -11 86.5t-9.5 95t-8 107.5t-7.5 124q0 8 8 8h29q8 0 8 -8q4 -133 12 -230.5t19 -170.5q2 -17 11 -23.5t26 -6.5q50 89 102.5 201.5t100.5 230.5q2 7 11 7h29q11 0 7 -9q-32 -76 -64 -146.5 t-65 -137.5q-40 -81 -86 -168t-106 -194q-3 -5 -5.5 -6t-7.5 1l-22 10q-9 5 -4 14zM368 715q11 4 16 -6l11 -24q5 -9 0.5 -14.5t-13.5 -8.5l-194 -70q-8 -3 -11 3l-10 25q-3 8 5 11z" />
<glyph unicode="&#xfe;" horiz-adv-x="491" d="M142 435h2q23 32 59 48t92 16q77 0 110 -32.5t33 -92.5q0 -30 -5.5 -72.5t-16.5 -96.5q-13 -65 -31 -106.5t-43 -65.5t-57.5 -33t-74.5 -9q-60 0 -91 19.5t-45 54.5h-3l-44 -235q-1 -7 -9 -7h-27q-9 0 -7 8l160 836q2 10 9 10h27q8 0 7 -10zM214 30q34 0 59 8.5 t43.5 29.5t32.5 57t25 90q9 42 14.5 83.5t5.5 70.5q0 45 -24 68t-82 23q-30 0 -56 -6t-48 -22.5t-38 -44.5t-25 -71l-25 -124q-2 -13 -3.5 -25t-1.5 -24q0 -24 6 -44.5t20.5 -35.5t38 -24t58.5 -9z" />
<glyph unicode="&#xff;" horiz-adv-x="395" d="M44 0zM49 -146q22 37 44.5 77t44.5 81q-24 2 -37.5 14.5t-18.5 42.5q-6 42 -11 86.5t-9.5 95t-8 107.5t-7.5 124q0 8 8 8h29q8 0 8 -8q4 -133 12 -230.5t19 -170.5q2 -17 11 -23.5t26 -6.5q50 89 102.5 201.5t100.5 230.5q2 7 11 7h29q11 0 7 -9q-32 -76 -64 -146.5 t-65 -137.5q-40 -81 -86 -168t-106 -194q-3 -5 -5.5 -6t-7.5 1l-22 10q-9 5 -4 14zM184 704q30 0 30 -25q0 -10 -5 -32q-5 -20 -15 -27.5t-30 -7.5h-12q-31 0 -31 23q0 8 5 33q7 36 43 36h15zM345 704q30 0 30 -25q0 -10 -5 -32q-5 -20 -15 -27.5t-30 -7.5h-12q-31 0 -31 23 q0 8 5 33q7 36 43 36h15z" />
<glyph unicode="&#x100;" horiz-adv-x="552" d="M0 0zM38 11q-2 -5 -5.5 -8t-11.5 -3h-23q-13 0 -7 11q80 177 155.5 330.5t150.5 289.5q5 10 11.5 13t16.5 3h27q8 0 14.5 -3.5t8.5 -14.5q10 -56 20.5 -128t19.5 -153t17 -166.5t14 -169.5q1 -12 -11 -12h-22q-13 0 -13 12q-3 50 -6.5 101t-8.5 102h-254zM327 607 q-48 -91 -91 -176.5t-86 -175.5h231q-10 102 -21 193t-22 159h-11zM235 730q-11 0 -8 12l6 27q3 11 12 11h231q11 0 8 -12l-6 -27q-3 -11 -12 -11h-231z" />
<glyph unicode="&#x101;" horiz-adv-x="456" d="M16 0zM332 239q-17 2 -35.5 3.5t-40.5 1.5h-56q-64 0 -93 -22q-11 -8 -18.5 -20t-12.5 -27q-6 -19 -11 -41.5t-5 -42.5q0 -32 20.5 -46.5t66.5 -14.5h9q68 0 109 33.5t52 94.5zM296 53q-22 -30 -57 -46t-89 -16h-11q-68 0 -95.5 24t-27.5 70q0 23 5.5 50t13.5 53 q7 21 19 38.5t29 28.5q41 28 129 28h48q18 0 40 -1.5t39 -4.5l7 36q11 53 11 79q0 38 -24.5 53t-80.5 15q-30 0 -64.5 -6t-63.5 -15q-11 -3 -12 5l-3 22q-1 9 7 11q33 10 70 16t75 6q27 0 52 -4.5t44.5 -15.5t31 -30t12.5 -47q0 -16 -4.5 -44.5t-9.5 -57.5l-55 -292 q-1 -8 -9 -8h-23q-10 0 -8 10l6 43h-2zM179 634q-11 0 -8 12l6 27q3 11 12 11h231q11 0 8 -12l-6 -27q-3 -11 -12 -11h-231z" />
<glyph unicode="&#x102;" horiz-adv-x="552" d="M0 0zM38 11q-2 -5 -5.5 -8t-11.5 -3h-23q-13 0 -7 11q80 177 155.5 330.5t150.5 289.5q5 10 11.5 13t16.5 3h27q8 0 14.5 -3.5t8.5 -14.5q10 -56 20.5 -128t19.5 -153t17 -166.5t14 -169.5q1 -12 -11 -12h-22q-13 0 -13 12q-3 50 -6.5 101t-8.5 102h-254zM327 607 q-48 -91 -91 -176.5t-86 -175.5h231q-10 102 -21 193t-22 159h-11zM355 694q-53 0 -86 27t-42 83q-1 10 8 13l24 5q11 2 13 -8q10 -42 30 -59.5t55 -17.5q37 0 63.5 17.5t49.5 62.5q5 10 15 7l22 -8q6 -2 6.5 -5.5t-1.5 -8.5q-26 -56 -66 -82t-91 -26z" />
<glyph unicode="&#x103;" horiz-adv-x="456" d="M16 0zM332 239q-17 2 -35.5 3.5t-40.5 1.5h-56q-64 0 -93 -22q-11 -8 -18.5 -20t-12.5 -27q-6 -19 -11 -41.5t-5 -42.5q0 -32 20.5 -46.5t66.5 -14.5h9q68 0 109 33.5t52 94.5zM296 53q-22 -30 -57 -46t-89 -16h-11q-68 0 -95.5 24t-27.5 70q0 23 5.5 50t13.5 53 q7 21 19 38.5t29 28.5q41 28 129 28h48q18 0 40 -1.5t39 -4.5l7 36q11 53 11 79q0 38 -24.5 53t-80.5 15q-30 0 -64.5 -6t-63.5 -15q-11 -3 -12 5l-3 22q-1 9 7 11q33 10 70 16t75 6q27 0 52 -4.5t44.5 -15.5t31 -30t12.5 -47q0 -16 -4.5 -44.5t-9.5 -57.5l-55 -292 q-1 -8 -9 -8h-23q-10 0 -8 10l6 43h-2zM291 585q-53 0 -86 27t-42 83q-1 10 8 13l24 5q11 2 13 -8q10 -42 30 -59.5t55 -17.5q37 0 63.5 17.5t49.5 62.5q5 10 15 7l22 -8q6 -2 6.5 -5.5t-1.5 -8.5q-26 -56 -66 -82t-91 -26z" />
<glyph unicode="&#x104;" horiz-adv-x="554" d="M40 11q-2 -5 -5.5 -8t-11.5 -3h-25q-13 0 -7 11q80 177 156 330.5t151 289.5q5 10 11.5 13t16.5 3h28q8 0 14.5 -3.5t8.5 -14.5q10 -56 20.5 -128t19.5 -153t17 -166.5t14 -169.5q0 -7 -6 -11q-17 -10 -34 -23t-30.5 -29t-21.5 -34t-8 -37q0 -17 13 -24.5t31 -7.5 q15 0 29.5 3t24.5 7q9 3 9 -5v-19q0 -5 -1.5 -8t-7.5 -6q-11 -5 -29.5 -8.5t-35.5 -3.5q-38 0 -61.5 15.5t-23.5 47.5q0 41 31.5 78.5t75.5 60.5q-3 50 -7 103t-9 104h-254zM329 607q-48 -91 -91 -176.5t-86 -175.5h231q-10 102 -21 193t-22 159h-11z" />
<glyph unicode="&#x105;" horiz-adv-x="456" d="M200 244q-64 0 -93 -22q-11 -8 -18.5 -20t-12.5 -27q-6 -19 -11 -41.5t-5 -42.5q0 -32 20.5 -46.5t66.5 -14.5h11q68 0 109 33.5t52 94.5l15 81q-17 2 -36 3.5t-41 1.5h-57zM262 283q18 0 40 -1.5t39 -4.5l7 36q11 53 11 79q0 38 -25 53t-81 15q-32 0 -65 -6t-62 -15 q-11 -3 -12 5l-3 22q-1 9 7 11q33 10 71 16t76 6q27 0 52 -4.5t44 -15.5t30.5 -30t11.5 -47q0 -16 -4.5 -44.5t-9.5 -57.5l-55 -292q-1 -5 -3.5 -7.5t-6.5 -4.5q-15 -9 -30.5 -21t-28.5 -27t-21 -32t-8 -36q0 -18 13 -26t31 -8q15 0 29.5 3t24.5 7q9 3 9 -5v-19 q0 -5 -1.5 -8t-7.5 -6q-11 -5 -29.5 -8.5t-35.5 -3.5q-38 0 -61.5 15.5t-23.5 50.5q0 48 30.5 79.5t78.5 54.5l7 47h-2q-22 -30 -57 -46t-89 -16h-13q-68 0 -95.5 24t-27.5 70q0 23 5.5 50t13.5 53q7 21 19 38.5t29 28.5q41 28 129 28h50z" />
<glyph unicode="&#x106;" horiz-adv-x="492" d="M42 0zM484 582q-4 -7 -8 -7t-9 3q-64 37 -135 37q-42 0 -75 -10t-59 -38t-45 -76.5t-33 -125.5q-13 -71 -20.5 -123t-7.5 -81q0 -35 7.5 -59.5t24.5 -40t45.5 -22.5t69.5 -7q31 0 70.5 7t74.5 21q6 2 9.5 1t5.5 -9l4 -17q1 -5 0 -7.5t-7 -4.5q-36 -16 -80.5 -24t-82.5 -8 q-102 0 -146.5 38.5t-44.5 124.5q0 35 9.5 95t24.5 141q15 79 38 130.5t55.5 81.5t73 42t90.5 12q44 0 85 -12.5t70 -30.5q10 -6 5 -16zM457 819q11 4 16 -6l11 -24q5 -9 0.5 -14.5t-13.5 -8.5l-194 -70q-8 -3 -11 3l-10 25q-3 8 5 11z" />
<glyph unicode="&#x107;" horiz-adv-x="408" d="M31 0zM328 32q2 -7 -0.5 -9.5t-7.5 -4.5q-27 -11 -64.5 -19t-72.5 -8q-73 0 -112.5 29.5t-39.5 101.5q0 15 2.5 36.5t6.5 46t9.5 50t10.5 49.5q7 31 14 55t16 42t19.5 32t24.5 26q23 20 55 30t77 10q35 0 68.5 -8.5t59.5 -23.5q9 -5 5 -14l-9 -18q-4 -8 -15 -3 q-25 12 -55 20t-59 8t-53.5 -7.5t-41.5 -22.5q-21 -18 -35.5 -48t-27.5 -85q-5 -22 -10 -45.5t-9 -46.5t-6 -43.5t-2 -35.5q0 -51 26.5 -73.5t89.5 -22.5q12 0 27.5 2t32 5.5t32.5 8.5t29 10q4 2 6.5 1.5t4.5 -6.5zM404 715q11 4 16 -6l11 -24q5 -9 0.5 -14.5t-13.5 -8.5 l-194 -70q-8 -3 -11 3l-10 25q-3 8 5 11z" />
<glyph unicode="&#x108;" horiz-adv-x="492" d="M42 0zM484 582q-4 -7 -8 -7t-9 3q-64 37 -135 37q-42 0 -75 -10t-59 -38t-45 -76.5t-33 -125.5q-13 -71 -20.5 -123t-7.5 -81q0 -35 7.5 -59.5t24.5 -40t45.5 -22.5t69.5 -7q31 0 70.5 7t74.5 21q6 2 9.5 1t5.5 -9l4 -17q1 -5 0 -7.5t-7 -4.5q-36 -16 -80.5 -24t-82.5 -8 q-102 0 -146.5 38.5t-44.5 124.5q0 35 9.5 95t24.5 141q15 79 38 130.5t55.5 81.5t73 42t90.5 12q44 0 85 -12.5t70 -30.5q10 -6 5 -16zM498 723q3 -5 3 -7q0 -5 -6 -9l-17 -13q-5 -3 -8 -3q-5 0 -9 6l-84 101h-6l-116 -101q-7 -5 -10 -5t-7 4l-17 17q-4 3 -4 7q0 5 5 9 l124 111q10 10 21 10h19q7 0 10.5 -1.5t8.5 -8.5z" />
<glyph unicode="&#x109;" horiz-adv-x="408" d="M31 0zM328 32q2 -7 -0.5 -9.5t-7.5 -4.5q-27 -11 -64.5 -19t-72.5 -8q-73 0 -112.5 29.5t-39.5 101.5q0 15 2.5 36.5t6.5 46t9.5 50t10.5 49.5q7 31 14 55t16 42t19.5 32t24.5 26q23 20 55 30t77 10q35 0 68.5 -8.5t59.5 -23.5q9 -5 5 -14l-9 -18q-4 -8 -15 -3 q-25 12 -55 20t-59 8t-53.5 -7.5t-41.5 -22.5q-21 -18 -35.5 -48t-27.5 -85q-5 -22 -10 -45.5t-9 -46.5t-6 -43.5t-2 -35.5q0 -51 26.5 -73.5t89.5 -22.5q12 0 27.5 2t32 5.5t32.5 8.5t29 10q4 2 6.5 1.5t4.5 -6.5zM418 618q6 -9 -3 -16l-17 -13q-10 -6 -17 3l-84 101h-6 l-116 -101q-6 -5 -10 -4.5t-7 3.5l-17 17q-9 7 1 16l124 111q10 10 21 10h19q7 0 10.5 -1.5t8.5 -8.5z" />
<glyph unicode="&#x10a;" horiz-adv-x="492" d="M42 0zM484 582q-4 -7 -8 -7t-9 3q-64 37 -135 37q-42 0 -75 -10t-59 -38t-45 -76.5t-33 -125.5q-13 -71 -20.5 -123t-7.5 -81q0 -35 7.5 -59.5t24.5 -40t45.5 -22.5t69.5 -7q31 0 70.5 7t74.5 21q6 2 9.5 1t5.5 -9l4 -17q1 -5 0 -7.5t-7 -4.5q-36 -16 -80.5 -24t-82.5 -8 q-102 0 -146.5 38.5t-44.5 124.5q0 35 9.5 95t24.5 141q15 79 38 130.5t55.5 81.5t73 42t90.5 12q44 0 85 -12.5t70 -30.5q10 -6 5 -16zM351 719q-19 0 -33.5 12t-14.5 36q0 26 17.5 46t47.5 20q19 0 33.5 -12t14.5 -36q0 -26 -17.5 -46t-47.5 -20z" />
<glyph unicode="&#x10b;" horiz-adv-x="408" d="M31 0zM328 32q2 -7 -0.5 -9.5t-7.5 -4.5q-27 -11 -64.5 -19t-72.5 -8q-73 0 -112.5 29.5t-39.5 101.5q0 15 2.5 36.5t6.5 46t9.5 50t10.5 49.5q7 31 14 55t16 42t19.5 32t24.5 26q23 20 55 30t77 10q35 0 68.5 -8.5t59.5 -23.5q9 -5 5 -14l-9 -18q-4 -8 -15 -3 q-25 12 -55 20t-59 8t-53.5 -7.5t-41.5 -22.5q-21 -18 -35.5 -48t-27.5 -85q-5 -22 -10 -45.5t-9 -46.5t-6 -43.5t-2 -35.5q0 -51 26.5 -73.5t89.5 -22.5q12 0 27.5 2t32 5.5t32.5 8.5t29 10q4 2 6.5 1.5t4.5 -6.5zM274 600q-19 0 -33.5 12t-14.5 36q0 26 17.5 46t47.5 20 q19 0 33.5 -12t14.5 -36q0 -26 -17.5 -46t-47.5 -20z" />
<glyph unicode="&#x10c;" horiz-adv-x="492" d="M42 0zM484 582q-4 -7 -8 -7t-9 3q-64 37 -135 37q-42 0 -75 -10t-59 -38t-45 -76.5t-33 -125.5q-13 -71 -20.5 -123t-7.5 -81q0 -35 7.5 -59.5t24.5 -40t45.5 -22.5t69.5 -7q31 0 70.5 7t74.5 21q6 2 9.5 1t5.5 -9l4 -17q1 -5 0 -7.5t-7 -4.5q-36 -16 -80.5 -24t-82.5 -8 q-102 0 -146.5 38.5t-44.5 124.5q0 35 9.5 95t24.5 141q15 79 38 130.5t55.5 81.5t73 42t90.5 12q44 0 85 -12.5t70 -30.5q10 -6 5 -16zM224 825q-6 9 3 16l17 13q10 6 17 -3l84 -101h6l116 101q6 5 10 4.5t7 -3.5l17 -17q9 -7 -1 -16l-126 -113q-5 -5 -9 -6.5t-10 -1.5h-19 q-7 0 -10.5 1.5t-8.5 8.5z" />
<glyph unicode="&#x10d;" horiz-adv-x="408" d="M31 0zM328 32q2 -7 -0.5 -9.5t-7.5 -4.5q-27 -11 -64.5 -19t-72.5 -8q-73 0 -112.5 29.5t-39.5 101.5q0 15 2.5 36.5t6.5 46t9.5 50t10.5 49.5q7 31 14 55t16 42t19.5 32t24.5 26q23 20 55 30t77 10q35 0 68.5 -8.5t59.5 -23.5q9 -5 5 -14l-9 -18q-4 -8 -15 -3 q-25 12 -55 20t-59 8t-53.5 -7.5t-41.5 -22.5q-21 -18 -35.5 -48t-27.5 -85q-5 -22 -10 -45.5t-9 -46.5t-6 -43.5t-2 -35.5q0 -51 26.5 -73.5t89.5 -22.5q12 0 27.5 2t32 5.5t32.5 8.5t29 10q4 2 6.5 1.5t4.5 -6.5zM153 709q-6 9 3 16l17 13q10 6 17 -3l84 -101h6l116 101 q6 5 10 4.5t7 -3.5l17 -17q9 -7 -1 -16l-126 -113q-5 -5 -9 -6.5t-10 -1.5h-19q-7 0 -10.5 1.5t-8.5 8.5z" />
<glyph unicode="&#x10e;" horiz-adv-x="560" d="M11 0zM276 612q-26 0 -48.5 -1.5t-36.5 -3.5q-8 -2 -13 -5.5t-7 -14.5l-106 -536q-3 -11 7 -11h60q71 0 122.5 12t88.5 40t61.5 74.5t41.5 115.5q11 48 18 93t7 74q0 47 -11.5 78.5t-35 50t-60.5 26.5t-88 8zM32 0q-12 0 -16.5 3.5t-2.5 14.5l119 603q2 10 6 14.5t15 6.5 q26 5 60.5 7.5t65.5 2.5q56 0 100.5 -9.5t75 -32t47 -61.5t16.5 -97q0 -26 -6 -74t-20 -104q-21 -89 -56 -142.5t-83 -83t-107.5 -39t-130.5 -9.5h-83zM215 825q-6 9 3 16l17 13q10 6 17 -3l84 -101h6l116 101q6 5 10 4.5t7 -3.5l17 -17q9 -7 -1 -16l-126 -113 q-5 -5 -9 -6.5t-10 -1.5h-19q-7 0 -10.5 1.5t-8.5 8.5z" />
<glyph unicode="&#x10f;" d="M31 0zM361 298q4 19 5 34t1 26q0 51 -31 76.5t-85 25.5q-33 0 -57.5 -8t-43 -27.5t-31 -51.5t-21.5 -79t-16 -91.5t-7 -78.5q0 -49 25.5 -71.5t82.5 -22.5q36 0 61.5 7.5t43.5 24t29 42.5t18 62zM433 670q1 7 9 7h28q7 0 6 -7l-99 -506q-11 -53 -27.5 -87t-41 -53 t-57 -26t-74.5 -7q-80 0 -113 32.5t-33 98.5q0 35 7.5 82t17.5 99q10 57 27 94.5t41 60t55 32t71 9.5q51 0 84.5 -16.5t50.5 -52.5h1zM568 686q29 0 29 -27q0 -8 -2 -18.5t-4 -16.5q-9 -34 -27.5 -63.5t-53.5 -63.5q-6 -6 -12 -1l-12 10q-5 5 1 11q13 13 25.5 28.5 t20.5 29.5q9 16 -3 22l-8 4q-11 5 -11 20q0 3 2 13t5 23q6 29 37 29h13z" />
<glyph unicode="&#x110;" horiz-adv-x="573" d="M45 0q-12 0 -16.5 3.5t-2.5 14.5l58 297h-65q-9 0 -8 7l4 25q1 6 9 6h68l53 268q2 10 6 14.5t15 6.5q26 5 60.5 7.5t65.5 2.5q56 0 100.5 -9t75 -32t47 -61.5t16.5 -97.5q0 -26 -6 -74t-20 -104q-21 -89 -56 -142.5t-83 -83t-107.5 -39t-130.5 -9.5h-83zM289 612 q-26 0 -48.5 -1.5t-36.5 -3.5q-8 -2 -13 -5.5t-7 -14.5l-47 -234h160q9 0 8 -7l-4 -25q-1 -6 -9 -6h-162l-52 -264q-3 -11 7 -11h60q71 0 122.5 12t88.5 40t61.5 74.5t41.5 115.5q11 48 18 93t7 74q0 47 -11.5 78.5t-35 50t-60.5 26.5t-88 8z" />
<glyph unicode="&#x111;" d="M411 561h-117q-7 0 -8 1.5t0 6.5l4 19q1 5 2.5 6t8.5 1h117l15 75q1 7 9 7h28q7 0 6 -7l-15 -75h73q7 0 8 -1.5t0 -6.5l-4 -19q-1 -5 -2.5 -6t-8.5 -1h-73l-77 -397q-11 -53 -27.5 -87t-41 -53t-57 -26t-74.5 -7q-80 0 -113 32.5t-33 98.5q0 35 7.5 82t17.5 99 q10 57 27 94.5t41 60t55 32t71 9.5q51 0 84.5 -16.5t50.5 -52.5h1zM361 298q4 19 5 34t1 26q0 51 -31 76.5t-85 25.5q-33 0 -57.5 -8t-43 -27.5t-31 -51.5t-21.5 -79t-16 -91.5t-7 -78.5q0 -49 25.5 -71.5t82.5 -22.5q36 0 61.5 7.5t43.5 24t29 42.5t18 62z" />
<glyph unicode="&#x112;" horiz-adv-x="466" d="M33 0zM129 0q-53 0 -74.5 22t-21.5 63q0 11 2 28t6 38q18 100 37 195t42 193q7 29 15.5 49.5t23 33.5t37 19t55.5 6h211q11 0 9 -10l-4 -21q-2 -6 -4 -7.5t-8 -1.5h-210q-36 0 -52.5 -15.5t-26.5 -58.5l-17 -76.5t-22 -101.5h254q11 0 9 -10l-5 -22q-2 -5 -4 -7t-8 -2 h-255q-12 -60 -19 -103t-12 -69q-6 -38 -6 -58q0 -23 13.5 -33t43.5 -10h222q10 0 9 -10l-4 -21q-2 -6 -4 -8t-8 -2h-224zM216 730q-11 0 -8 12l6 27q3 11 12 11h231q11 0 8 -12l-6 -27q-3 -11 -12 -11h-231z" />
<glyph unicode="&#x113;" horiz-adv-x="436" d="M31 0zM374 231q-2 -7 -6 -11.5t-15 -4.5h-270q-9 -51 -9 -88q0 -27 6 -45.5t20 -30t37 -16.5t57 -5q30 0 67 8t63 17q10 4 11 -5l4 -20q1 -8 -7 -12q-34 -13 -72 -20t-72 -7q-46 0 -76 9t-48 26t-25.5 41t-7.5 55q0 18 3 45t7.5 56t10 57.5t9.5 49.5q18 91 61 130 q24 21 57 30t75 9q73 0 107 -31t34 -89q0 -14 -2 -32t-5 -37.5t-6.5 -40t-7.5 -38.5zM321 253q12 0 15 14q7 32 11 59.5t4 47.5q0 48 -26.5 67t-76.5 19q-32 0 -56 -6.5t-42 -23.5t-30 -46.5t-20 -74.5l-10 -56h231zM155 634q-11 0 -8 12l6 27q3 11 12 11h231q11 0 8 -12 l-6 -27q-3 -11 -12 -11h-231z" />
<glyph unicode="&#x114;" horiz-adv-x="466" d="M33 0zM129 0q-53 0 -74.5 22t-21.5 63q0 11 2 28t6 38q18 100 37 195t42 193q7 29 15.5 49.5t23 33.5t37 19t55.5 6h211q11 0 9 -10l-4 -21q-2 -6 -4 -7.5t-8 -1.5h-210q-36 0 -52.5 -15.5t-26.5 -58.5l-17 -76.5t-22 -101.5h254q11 0 9 -10l-5 -22q-2 -5 -4 -7t-8 -2 h-255q-12 -60 -19 -103t-12 -69q-6 -38 -6 -58q0 -23 13.5 -33t43.5 -10h222q10 0 9 -10l-4 -21q-2 -6 -4 -8t-8 -2h-224zM341 694q-53 0 -86 27t-42 83q-1 10 8 13l24 5q11 2 13 -8q10 -42 30 -59.5t55 -17.5q37 0 63.5 17.5t49.5 62.5q5 10 15 7l22 -8q6 -2 6.5 -5.5 t-1.5 -8.5q-26 -56 -66 -82t-91 -26z" />
<glyph unicode="&#x115;" horiz-adv-x="436" d="M31 0zM374 231q-2 -7 -6 -11.5t-15 -4.5h-270q-9 -51 -9 -88q0 -27 6 -45.5t20 -30t37 -16.5t57 -5q30 0 67 8t63 17q10 4 11 -5l4 -20q1 -8 -7 -12q-34 -13 -72 -20t-72 -7q-46 0 -76 9t-48 26t-25.5 41t-7.5 55q0 18 3 45t7.5 56t10 57.5t9.5 49.5q18 91 61 130 q24 21 57 30t75 9q73 0 107 -31t34 -89q0 -14 -2 -32t-5 -37.5t-6.5 -40t-7.5 -38.5zM321 253q12 0 15 14q7 32 11 59.5t4 47.5q0 48 -26.5 67t-76.5 19q-32 0 -56 -6.5t-42 -23.5t-30 -46.5t-20 -74.5l-10 -56h231zM271 585q-53 0 -86 27t-42 83q-1 10 8 13l24 5 q11 2 13 -8q10 -42 30 -59.5t55 -17.5q37 0 63.5 17.5t49.5 62.5q5 10 15 7l22 -8q6 -2 6.5 -5.5t-1.5 -8.5q-26 -56 -66 -82t-91 -26z" />
<glyph unicode="&#x116;" horiz-adv-x="466" d="M33 0zM129 0q-53 0 -74.5 22t-21.5 63q0 11 2 28t6 38q18 100 37 195t42 193q7 29 15.5 49.5t23 33.5t37 19t55.5 6h211q11 0 9 -10l-4 -21q-2 -6 -4 -7.5t-8 -1.5h-210q-36 0 -52.5 -15.5t-26.5 -58.5l-17 -76.5t-22 -101.5h254q11 0 9 -10l-5 -22q-2 -5 -4 -7t-8 -2 h-255q-12 -60 -19 -103t-12 -69q-6 -38 -6 -58q0 -23 13.5 -33t43.5 -10h222q10 0 9 -10l-4 -21q-2 -6 -4 -8t-8 -2h-224zM325 719q-19 0 -33.5 12t-14.5 36q0 26 17.5 46t47.5 20q19 0 33.5 -12t14.5 -36q0 -26 -17.5 -46t-47.5 -20z" />
<glyph unicode="&#x117;" horiz-adv-x="436" d="M31 0zM374 231q-2 -7 -6 -11.5t-15 -4.5h-270q-9 -51 -9 -88q0 -27 6 -45.5t20 -30t37 -16.5t57 -5q30 0 67 8t63 17q10 4 11 -5l4 -20q1 -8 -7 -12q-34 -13 -72 -20t-72 -7q-46 0 -76 9t-48 26t-25.5 41t-7.5 55q0 18 3 45t7.5 56t10 57.5t9.5 49.5q18 91 61 130 q24 21 57 30t75 9q73 0 107 -31t34 -89q0 -14 -2 -32t-5 -37.5t-6.5 -40t-7.5 -38.5zM321 253q12 0 15 14q7 32 11 59.5t4 47.5q0 48 -26.5 67t-76.5 19q-32 0 -56 -6.5t-42 -23.5t-30 -46.5t-20 -74.5l-10 -56h231zM271 600q-19 0 -33.5 12t-14.5 36q0 26 17.5 46t47.5 20 q19 0 33.5 -12t14.5 -36q0 -26 -17.5 -46t-47.5 -20z" />
<glyph unicode="&#x118;" horiz-adv-x="466" d="M118 314q-12 -60 -19 -103t-12 -69q-6 -38 -6 -58q0 -23 13.5 -33t43.5 -10h222q10 0 9 -10l-4 -21q-2 -6 -4.5 -8.5t-6.5 -4.5q-14 -9 -30 -21t-29.5 -27t-22 -32.5t-8.5 -36.5q0 -18 13 -26t31 -8q15 0 29.5 3t24.5 7q9 3 9 -5v-19q0 -5 -1.5 -8t-7.5 -6 q-11 -5 -29.5 -8.5t-35.5 -3.5q-38 0 -61.5 15.5t-23.5 50.5q0 38 25.5 72.5t70.5 55.5h-177q-97 0 -97 74q0 15 1.5 35.5t5.5 41.5q18 100 37 195t42 193q7 29 15.5 49.5t23 33.5t37 19t55.5 6h211q11 0 9 -10l-4 -21q-2 -6 -4 -7.5t-8 -1.5h-210q-36 0 -52.5 -15.5 t-26.5 -58.5l-17 -76.5t-22 -101.5h254q11 0 9 -10l-5 -22q-2 -5 -4 -7t-8 -2h-255v0z" />
<glyph unicode="&#x119;" horiz-adv-x="436" d="M374 231q-2 -7 -6 -11.5t-15 -4.5h-270q-9 -51 -9 -88q0 -27 6 -45.5t20 -30t37 -16.5t57 -5q30 0 67 7t63 17q10 4 11 -5l4 -18q1 -5 -0.5 -7.5t-8.5 -5.5q-61 -27 -87 -63.5t-26 -74.5q0 -18 13 -26t31 -8q15 0 29.5 3t24.5 7q9 3 9 -5v-19q0 -5 -1.5 -8t-7.5 -6 q-11 -5 -29.5 -8.5t-35.5 -3.5q-38 0 -61.5 15.5t-23.5 50.5q0 19 7 37.5t19 35.5t28.5 31t35.5 23q-37 -8 -67 -8q-46 0 -76 9t-48 26t-25.5 41t-7.5 55q0 18 3 45t7.5 56t10 57.5t9.5 49.5q18 91 61 130q24 21 57 30t75 9q74 0 107.5 -30t33.5 -90q0 -14 -2 -32t-5 -37.5 t-6.5 -40t-7.5 -38.5zM321 253q12 0 15 14q7 32 11 59.5t4 47.5q0 48 -26.5 67t-76.5 19q-32 0 -56 -6.5t-42 -23.5t-30 -46.5t-20 -74.5l-10 -56h231z" />
<glyph unicode="&#x11a;" horiz-adv-x="466" d="M33 0zM129 0q-53 0 -74.5 22t-21.5 63q0 11 2 28t6 38q18 100 37 195t42 193q7 29 15.5 49.5t23 33.5t37 19t55.5 6h211q11 0 9 -10l-4 -21q-2 -6 -4 -7.5t-8 -1.5h-210q-36 0 -52.5 -15.5t-26.5 -58.5l-17 -76.5t-22 -101.5h254q11 0 9 -10l-5 -22q-2 -5 -4 -7t-8 -2 h-255q-12 -60 -19 -103t-12 -69q-6 -38 -6 -58q0 -23 13.5 -33t43.5 -10h222q10 0 9 -10l-4 -21q-2 -6 -4 -8t-8 -2h-224zM199 825q-6 9 3 16l17 13q10 6 17 -3l84 -101h6l116 101q6 5 10 4.5t7 -3.5l17 -17q9 -7 -1 -16l-126 -113q-5 -5 -9 -6.5t-10 -1.5h-19 q-7 0 -10.5 1.5t-8.5 8.5z" />
<glyph unicode="&#x11b;" horiz-adv-x="436" d="M31 0zM374 231q-2 -7 -6 -11.5t-15 -4.5h-270q-9 -51 -9 -88q0 -27 6 -45.5t20 -30t37 -16.5t57 -5q30 0 67 8t63 17q10 4 11 -5l4 -20q1 -8 -7 -12q-34 -13 -72 -20t-72 -7q-46 0 -76 9t-48 26t-25.5 41t-7.5 55q0 18 3 45t7.5 56t10 57.5t9.5 49.5q18 91 61 130 q24 21 57 30t75 9q73 0 107 -31t34 -89q0 -14 -2 -32t-5 -37.5t-6.5 -40t-7.5 -38.5zM321 253q12 0 15 14q7 32 11 59.5t4 47.5q0 48 -26.5 67t-76.5 19q-32 0 -56 -6.5t-42 -23.5t-30 -46.5t-20 -74.5l-10 -56h231zM143 709q-6 9 3 16l17 13q10 6 17 -3l84 -101h6l116 101 q6 5 10 4.5t7 -3.5l17 -17q9 -7 -1 -16l-126 -113q-5 -5 -9 -6.5t-10 -1.5h-19q-7 0 -10.5 1.5t-8.5 8.5z" />
<glyph unicode="&#x11c;" horiz-adv-x="546" d="M42 0zM316 294q-12 0 -9 10l5 22q2 5 4 7t8 2h150q11 0 10 -9l-56 -286q-2 -11 -5.5 -16.5t-14.5 -9.5q-31 -11 -73.5 -17t-94.5 -6q-47 0 -83.5 8t-62 27.5t-39 52t-13.5 80.5q0 37 9.5 95.5t22.5 122.5q14 67 33.5 124t55.5 93q30 30 75 46t111 16q48 0 88 -12t69 -29 q10 -7 5 -16l-9 -15q-4 -7 -8 -7t-9 3q-32 17 -64 26t-73 9q-63 0 -102 -17.5t-63 -50t-38 -78t-26 -102.5q-14 -66 -21 -113.5t-7 -85.5q0 -35 7 -61t24.5 -43t48 -25t77.5 -8q32 0 63.5 4t57.5 10q10 2 12.5 5t4.5 11l46 233h-116zM490 723q3 -5 3 -7q0 -5 -6 -9l-17 -13 q-5 -3 -8 -3q-5 0 -9 6l-84 101h-6l-116 -101q-7 -5 -10 -5t-7 4l-17 17q-4 3 -4 7q0 5 5 9l124 111q10 10 21 10h19q7 0 10.5 -1.5t8.5 -8.5z" />
<glyph unicode="&#x11d;" d="M30 0zM361 293q3 15 4.5 32.5t1.5 34.5q0 45 -29.5 72.5t-81.5 27.5q-35 0 -60.5 -8t-44 -26t-30.5 -47.5t-21 -73.5q-11 -58 -18 -104t-7 -75q0 -51 25.5 -73.5t74.5 -22.5q71 0 109.5 35t52.5 106zM384 431l14 49q2 8 4.5 9t8.5 1h17q12 0 10 -11l-95 -481 q-10 -50 -23 -85t-33 -57.5t-50.5 -32.5t-74.5 -10q-32 0 -66.5 6t-56.5 15q-9 4 -7 11l7 20q2 5 4 6t8 -1q26 -9 55 -14t57 -5q34 0 57.5 8.5t39 26.5t25.5 46t18 66l11 53h-3q-19 -29 -53 -44.5t-87 -15.5q-139 0 -139 134q0 28 7.5 78t18.5 108q10 55 26.5 91.5t40.5 58 t55.5 30t72.5 8.5q47 0 81.5 -16.5t48.5 -51.5h1zM422 618q6 -9 -3 -16l-17 -13q-10 -6 -17 3l-84 101h-6l-116 -101q-6 -5 -10 -4.5t-7 3.5l-17 17q-9 7 1 16l124 111q10 10 21 10h19q7 0 10.5 -1.5t8.5 -8.5z" />
<glyph unicode="&#x11e;" horiz-adv-x="546" d="M42 0zM316 294q-12 0 -9 10l5 22q2 5 4 7t8 2h150q11 0 10 -9l-56 -286q-2 -11 -5.5 -16.5t-14.5 -9.5q-31 -11 -73.5 -17t-94.5 -6q-47 0 -83.5 8t-62 27.5t-39 52t-13.5 80.5q0 37 9.5 95.5t22.5 122.5q14 67 33.5 124t55.5 93q30 30 75 46t111 16q48 0 88 -12t69 -29 q10 -7 5 -16l-9 -15q-4 -7 -8 -7t-9 3q-32 17 -64 26t-73 9q-63 0 -102 -17.5t-63 -50t-38 -78t-26 -102.5q-14 -66 -21 -113.5t-7 -85.5q0 -35 7 -61t24.5 -43t48 -25t77.5 -8q32 0 63.5 4t57.5 10q10 2 12.5 5t4.5 11l46 233h-116zM359 694q-53 0 -86 27t-42 83 q-1 10 8 13l24 5q11 2 13 -8q10 -42 30 -59.5t55 -17.5q37 0 63.5 17.5t49.5 62.5q5 10 15 7l22 -8q6 -2 6.5 -5.5t-1.5 -8.5q-26 -56 -66 -82t-91 -26z" />
<glyph unicode="&#x11f;" d="M30 0zM361 293q3 15 4.5 32.5t1.5 34.5q0 45 -29.5 72.5t-81.5 27.5q-35 0 -60.5 -8t-44 -26t-30.5 -47.5t-21 -73.5q-11 -58 -18 -104t-7 -75q0 -51 25.5 -73.5t74.5 -22.5q71 0 109.5 35t52.5 106zM384 431l14 49q2 8 4.5 9t8.5 1h17q12 0 10 -11l-95 -481 q-10 -50 -23 -85t-33 -57.5t-50.5 -32.5t-74.5 -10q-32 0 -66.5 6t-56.5 15q-9 4 -7 11l7 20q2 5 4 6t8 -1q26 -9 55 -14t57 -5q34 0 57.5 8.5t39 26.5t25.5 46t18 66l11 53h-3q-19 -29 -53 -44.5t-87 -15.5q-139 0 -139 134q0 28 7.5 78t18.5 108q10 55 26.5 91.5t40.5 58 t55.5 30t72.5 8.5q47 0 81.5 -16.5t48.5 -51.5h1zM283 585q-53 0 -86 27t-42 83q-1 10 8 13l24 5q11 2 13 -8q10 -42 30 -59.5t55 -17.5q37 0 63.5 17.5t49.5 62.5q5 10 15 7l22 -8q6 -2 6.5 -5.5t-1.5 -8.5q-26 -56 -66 -82t-91 -26z" />
<glyph unicode="&#x120;" horiz-adv-x="546" d="M42 0zM316 294q-12 0 -9 10l5 22q2 5 4 7t8 2h150q11 0 10 -9l-56 -286q-2 -11 -5.5 -16.5t-14.5 -9.5q-31 -11 -73.5 -17t-94.5 -6q-47 0 -83.5 8t-62 27.5t-39 52t-13.5 80.5q0 37 9.5 95.5t22.5 122.5q14 67 33.5 124t55.5 93q30 30 75 46t111 16q48 0 88 -12t69 -29 q10 -7 5 -16l-9 -15q-4 -7 -8 -7t-9 3q-32 17 -64 26t-73 9q-63 0 -102 -17.5t-63 -50t-38 -78t-26 -102.5q-14 -66 -21 -113.5t-7 -85.5q0 -35 7 -61t24.5 -43t48 -25t77.5 -8q32 0 63.5 4t57.5 10q10 2 12.5 5t4.5 11l46 233h-116zM352 719q-19 0 -33.5 12t-14.5 36 q0 26 17.5 46t47.5 20q19 0 33.5 -12t14.5 -36q0 -26 -17.5 -46t-47.5 -20z" />
<glyph unicode="&#x121;" d="M30 0zM361 293q3 15 4.5 32.5t1.5 34.5q0 45 -29.5 72.5t-81.5 27.5q-35 0 -60.5 -8t-44 -26t-30.5 -47.5t-21 -73.5q-11 -58 -18 -104t-7 -75q0 -51 25.5 -73.5t74.5 -22.5q71 0 109.5 35t52.5 106zM384 431l14 49q2 8 4.5 9t8.5 1h17q12 0 10 -11l-95 -481 q-10 -50 -23 -85t-33 -57.5t-50.5 -32.5t-74.5 -10q-32 0 -66.5 6t-56.5 15q-9 4 -7 11l7 20q2 5 4 6t8 -1q26 -9 55 -14t57 -5q34 0 57.5 8.5t39 26.5t25.5 46t18 66l11 53h-3q-19 -29 -53 -44.5t-87 -15.5q-139 0 -139 134q0 28 7.5 78t18.5 108q10 55 26.5 91.5t40.5 58 t55.5 30t72.5 8.5q47 0 81.5 -16.5t48.5 -51.5h1zM282 600q-19 0 -33.5 12t-14.5 36q0 26 17.5 46t47.5 20q19 0 33.5 -12t14.5 -36q0 -26 -17.5 -46t-47.5 -20z" />
<glyph unicode="&#x122;" horiz-adv-x="546" d="M42 0zM316 294q-12 0 -9 10l5 22q2 5 4 7t8 2h150q11 0 10 -9l-56 -286q-2 -11 -5.5 -16.5t-14.5 -9.5q-31 -11 -73.5 -17t-94.5 -6q-47 0 -83.5 8t-62 27.5t-39 52t-13.5 80.5q0 37 9.5 95.5t22.5 122.5q14 67 33.5 124t55.5 93q30 30 75 46t111 16q48 0 88 -12t69 -29 q10 -7 5 -16l-9 -15q-4 -7 -8 -7t-9 3q-32 17 -64 26t-73 9q-63 0 -102 -17.5t-63 -50t-38 -78t-26 -102.5q-14 -66 -21 -113.5t-7 -85.5q0 -35 7 -61t24.5 -43t48 -25t77.5 -8q32 0 63.5 4t57.5 10q10 2 12.5 5t4.5 11l46 233h-116zM235 -64q29 0 29 -27q0 -8 -2 -18.5 t-4 -16.5q-9 -34 -27.5 -63.5t-53.5 -63.5q-6 -6 -12 -1l-12 10q-5 5 1 11q13 13 25.5 28.5t20.5 29.5q9 16 -3 22l-8 4q-11 5 -11 20q0 3 2 13t5 23q6 29 37 29h13z" />
<glyph unicode="&#x123;" d="M30 0zM361 293q3 15 4.5 32.5t1.5 34.5q0 45 -29.5 72.5t-81.5 27.5q-35 0 -60.5 -8t-44 -26t-30.5 -47.5t-21 -73.5q-11 -58 -18 -104t-7 -75q0 -51 25.5 -73.5t74.5 -22.5q71 0 109.5 35t52.5 106zM384 431l14 49q2 8 4.5 9t8.5 1h17q12 0 10 -11l-95 -481 q-10 -50 -23 -85t-33 -57.5t-50.5 -32.5t-74.5 -10q-32 0 -66.5 6t-56.5 15q-9 4 -7 11l7 20q2 5 4 6t8 -1q26 -9 55 -14t57 -5q34 0 57.5 8.5t39 26.5t25.5 46t18 66l11 53h-3q-19 -29 -53 -44.5t-87 -15.5q-139 0 -139 134q0 28 7.5 78t18.5 108q10 55 26.5 91.5t40.5 58 t55.5 30t72.5 8.5q47 0 81.5 -16.5t48.5 -51.5h1zM262.002 569.996q-28.998 0 -28.998 26.998q0 8 2 18.499t3.99902 16.499q9 33.998 27.499 63.4961q18.498 29.498 53.4961 63.4961q6 6 12 1l11.999 -9.99902q4.99902 -5 -1 -11q-12.999 -12.999 -25.499 -28.498 q-12.499 -15.499 -20.498 -29.498q-9 -15.999 3 -21.999l7.99902 -3.99902q10.999 -5 10.999 -19.999q0 -3 -2 -12.999q-1.99902 -10 -4.99902 -22.999q-6 -28.998 -36.998 -28.998h-12.999z" />
<glyph unicode="&#x124;" horiz-adv-x="581" d="M11 0zM446 9q-1 -9 -11 -9h-26q-11 0 -9 9l59 306h-341l-59 -306q-1 -9 -11 -9h-26q-11 0 -9 9l122 629q1 9 11 9h26q10 0 9 -9l-55 -283h341l55 283q1 9 11 9h26q10 0 9 -9zM505 723q3 -5 3 -7q0 -5 -6 -9l-17 -13q-5 -3 -8 -3q-5 0 -9 6l-84 101h-6l-116 -101 q-7 -5 -10 -5t-7 4l-17 17q-4 3 -4 7q0 5 5 9l124 111q10 10 21 10h19q7 0 10.5 -1.5t8.5 -8.5z" />
<glyph unicode="&#x125;" horiz-adv-x="484" d="M16 0zM144 434q23 30 60.5 47.5t97.5 17.5q67 0 96 -28t29 -79q0 -23 -5.5 -57t-13.5 -75l-48 -253q-1 -7 -9 -7h-27q-8 0 -7 8l55 286q6 31 9 52t3 36q0 38 -21 58t-72 20q-32 0 -60 -8t-50.5 -26.5t-38.5 -48.5t-25 -75l-57 -295q-1 -7 -9 -7h-27q-8 0 -7 8l128 662 q1 7 9 7h28q7 0 6 -7l-46 -236h2v0zM314 722q6 -9 -3 -16l-17 -13q-10 -6 -17 3l-84 101h-6l-116 -101q-6 -5 -10 -4.5t-7 3.5l-17 17q-9 7 1 16l124 111q10 10 21 10h19q7 0 10.5 -1.5t8.5 -8.5z" />
<glyph unicode="&#x126;" horiz-adv-x="593" d="M551 518h50q9 0 8 -7l-4 -25q-1 -6 -9 -6h-53l-91 -471q-1 -9 -11 -9h-26q-11 0 -9 9l59 306h-341l-59 -306q-1 -9 -11 -9h-26q-11 0 -9 9l91 471h-48q-9 0 -8 7l4 25q1 6 9 6h51l23 120q1 9 11 9h26q10 0 9 -9l-23 -120h341l23 120q1 9 11 9h26q10 0 9 -9zM473 355 l24 125h-341l-24 -125h341z" />
<glyph unicode="&#x127;" horiz-adv-x="484" d="M144 434q23 30 60.5 47.5t97.5 17.5q67 0 96 -28t29 -79q0 -23 -5.5 -57t-13.5 -75l-48 -253q-1 -7 -9 -7h-27q-8 0 -7 8l55 286q6 31 9 52t3 36q0 38 -21 58t-72 20q-32 0 -60 -8t-50.5 -26.5t-38.5 -48.5t-25 -75l-57 -295q-1 -7 -9 -7h-27q-8 0 -7 8l107 553h-54 q-7 0 -8 1.5t0 6.5l4 19q1 5 2.5 6t8.5 1h53l15 75q1 7 9 7h28q7 0 6 -7l-15 -75h137q7 0 8 -1.5t0 -6.5l-4 -19q-1 -5 -2.5 -6t-8.5 -1h-136l-25 -127h2v0z" />
<glyph unicode="&#x128;" horiz-adv-x="202" d="M15 0zM63 9q-1 -9 -11 -9h-26q-11 0 -9 9l122 629q1 9 11 9h26q10 0 9 -9zM28 731q-7 5 -2 12q25 40 53 58t54 18q31 0 59 -24l21 -18q20 -17 37 -17t35 15t35 38q6 7 14 1l16 -13q8 -6 1 -15q-25 -35 -50 -55t-55 -20q-32 0 -60 24l-21 18q-11 9 -19 14.5t-19 5.5 q-17 0 -32 -12t-34 -39q-7 -9 -15 -4z" />
<glyph unicode="&#x129;" horiz-adv-x="218" d="M12 0zM77 7q-1 -7 -9 -7h-29q-7 0 -6 7l92 476q1 7 9 7h29q7 0 6 -7zM19 624q-7 5 -2 12q25 40 53 58t54 18q31 0 59 -24l21 -18q20 -17 37 -17t35 15t35 38q6 7 14 1l16 -13q8 -6 1 -15q-25 -35 -50 -55t-55 -20q-32 0 -60 24l-21 18q-11 9 -19 14.5t-19 5.5 q-17 0 -32 -12t-34 -39q-7 -9 -15 -4z" />
<glyph unicode="&#x12a;" horiz-adv-x="202" d="M15 0zM63 9q-1 -9 -11 -9h-26q-11 0 -9 9l122 629q1 9 11 9h26q10 0 9 -9zM65 730q-11 0 -8 12l6 27q3 11 12 11h231q11 0 8 -12l-6 -27q-3 -11 -12 -11h-231z" />
<glyph unicode="&#x12b;" horiz-adv-x="218" d="M32 0zM77 7q-1 -7 -9 -7h-29q-7 0 -6 7l92 476q1 7 9 7h29q7 0 6 -7zM60 634q-11 0 -8 12l6 27q3 11 12 11h231q11 0 8 -12l-6 -27q-3 -11 -12 -11h-231z" />
<glyph unicode="&#x12c;" horiz-adv-x="202" d="M15 0zM63 9q-1 -9 -11 -9h-26q-11 0 -9 9l122 629q1 9 11 9h26q10 0 9 -9zM181 694q-53 0 -86 27t-42 83q-1 10 8 13l24 5q11 2 13 -8q10 -42 30 -59.5t55 -17.5q37 0 63.5 17.5t49.5 62.5q5 10 15 7l22 -8q6 -2 6.5 -5.5t-1.5 -8.5q-26 -56 -66 -82t-91 -26z" />
<glyph unicode="&#x12d;" horiz-adv-x="218" d="M32 0zM77 7q-1 -7 -9 -7h-29q-7 0 -6 7l92 476q1 7 9 7h29q7 0 6 -7zM168 585q-53 0 -86 27t-42 83q-1 10 8 13l24 5q11 2 13 -8q10 -42 30 -59.5t55 -17.5q37 0 63.5 17.5t49.5 62.5q5 10 15 7l22 -8q6 -2 6.5 -5.5t-1.5 -8.5q-26 -56 -66 -82t-91 -26z" />
<glyph unicode="&#x12e;" horiz-adv-x="202" d="M36 -19q-27 -20 -46 -46t-19 -55q0 -18 13 -26t31 -8q15 0 29.5 3t24.5 7q9 3 9 -5v-19q0 -5 -1.5 -8t-7.5 -6q-11 -5 -29.5 -8.5t-35.5 -3.5q-38 0 -61.5 15.5t-23.5 50.5q0 38 26 72.5t70 55.5l124 638q1 9 11 9h26q10 0 9 -9l-122 -629q-2 -7 -6 -11t-21 -17z" />
<glyph unicode="&#x12f;" horiz-adv-x="218" d="M77 8q-1 -8 -9 -11q-40 -18 -64.5 -48.5t-24.5 -68.5q0 -18 13 -26t31 -8q15 0 29.5 3t24.5 7q9 3 9 -5v-19q0 -5 -1.5 -8t-7.5 -6q-11 -5 -29.5 -8.5t-35.5 -3.5q-38 0 -61.5 15.5t-23.5 50.5q0 42 28.5 77.5t78.5 60.5l91 473q1 7 9 7h29q7 0 6 -7zM183 662 q23 0 27 -11t-3 -40q-5 -19 -14 -23.5t-26 -4.5h-4q-22 0 -27.5 9.5t1.5 37.5q5 19 14 25.5t29 6.5h3z" />
<glyph unicode="&#x130;" horiz-adv-x="202" d="M15 0zM63 9q-1 -9 -11 -9h-26q-11 0 -9 9l122 629q1 9 11 9h26q10 0 9 -9zM178 719q-19 0 -33.5 12t-14.5 36q0 26 17.5 46t47.5 20q19 0 33.5 -12t14.5 -36q0 -26 -17.5 -46t-47.5 -20z" />
<glyph unicode="&#x131;" horiz-adv-x="218" d="M77 7q-1 -7 -9 -7h-29q-7 0 -6 7l92 476q1 7 9 7h29q7 0 6 -7z" />
<glyph unicode="&#x132;" horiz-adv-x="485" d="M15 0zM63 9q-1 -9 -11 -9h-26q-11 0 -9 9l122 629q1 9 11 9h26q10 0 9 -9zM165 0q-9 0 -8 9l4 23q1 8 11 8h41q43 0 66.5 16.5t35.5 40.5t17.5 51t10.5 50l85 440q1 9 11 9h26q10 0 9 -9l-86 -446q-6 -30 -13.5 -57t-18.5 -53q-20 -44 -56.5 -63t-91.5 -19h-43z" />
<glyph unicode="&#x133;" horiz-adv-x="421" d="M32 0zM183 662q23 0 27 -11t-3 -40q-5 -19 -14 -23.5t-26 -4.5h-4q-22 0 -27.5 9.5t1.5 37.5q5 19 14 25.5t29 6.5h3zM77 7q-1 -7 -9 -7h-29q-7 0 -6 7l92 476q1 7 9 7h29q7 0 6 -7zM331 483q1 7 9 7h29q7 0 6 -7l-93 -484q-7 -36 -18.5 -70.5t-37.5 -60.5 q-21 -21 -52 -32t-76 -11h-16q-9 0 -8 8l4 23q1 7 9 7h19q58 0 94 37q18 19 26.5 47.5t13.5 56.5zM389 662q23 0 27 -11t-3 -40q-5 -19 -14 -23.5t-26 -4.5h-4q-22 0 -27.5 9.5t1.5 37.5q5 19 14 25.5t29 6.5h3z" />
<glyph unicode="&#x134;" horiz-adv-x="283" d="M0 0zM-37 0q-9 0 -8 9l4 23q1 8 11 8h41q43 0 66.5 16.5t35.5 40.5t17.5 51t10.5 50l85 440q1 9 11 9h26q10 0 9 -9l-86 -446q-6 -30 -13.5 -57t-18.5 -53q-20 -44 -56.5 -63t-91.5 -19h-43zM401 723q3 -5 3 -7q0 -5 -6 -9l-17 -13q-5 -3 -8 -3q-5 0 -9 6l-84 101h-6 l-116 -101q-7 -5 -10 -5t-7 4l-17 17q-4 3 -4 7q0 5 5 9l124 111q10 10 21 10h19q7 0 10.5 -1.5t8.5 -8.5z" />
<glyph unicode="&#x135;" horiz-adv-x="203" d="M113 483q1 7 9 7h29q7 0 6 -7l-93 -484q-7 -36 -18.5 -70.5t-37.5 -60.5q-21 -21 -52 -32t-76 -11h-16q-9 0 -8 8l4 23q1 7 9 7h19q58 0 94 37q18 19 26.5 47.5t13.5 56.5zM290 618q6 -9 -3 -16l-17 -13q-10 -6 -17 3l-84 101h-6l-116 -101q-6 -5 -10 -4.5t-7 3.5l-17 17 q-9 7 1 16l124 111q10 10 21 10h19q7 0 10.5 -1.5t8.5 -8.5z" />
<glyph unicode="&#x136;" horiz-adv-x="482" d="M11 0zM126 355h78q18 0 28.5 4.5t19.5 15.5l217 262q5 6 8.5 8t10.5 2h29q8 0 9 -4t-4 -9l-245 -292q-5 -7 -5 -10t3 -9l152 -312q5 -11 -9 -11h-25q-13 0 -17 9l-135 285q-6 14 -13 17.5t-23 3.5h-87l-59 -306q-1 -9 -11 -9h-26q-11 0 -9 9l122 629q1 9 11 9h26 q10 0 9 -9zM204 -64q29 0 29 -27q0 -8 -2 -18.5t-4 -16.5q-9 -34 -27.5 -63.5t-53.5 -63.5q-6 -6 -12 -1l-12 10q-5 5 1 11q13 13 25.5 28.5t20.5 29.5q9 16 -3 22l-8 4q-11 5 -11 20q0 3 2 13t5 23q6 29 37 29h13z" />
<glyph unicode="&#x137;" horiz-adv-x="428" d="M20 0zM64 7q-1 -7 -9 -7h-27q-8 0 -7 8l128 662q1 7 9 7h28q7 0 6 -7l-74 -389h58q10 0 17 3t16 14l165 186q5 6 12 6h33q13 0 4 -10l-190 -212q-4 -6 -4 -8q0 -3 2 -7l112 -245q4 -8 -5 -8h-30q-8 0 -12 8l-99 221q-3 7 -7 9.5t-13 2.5h-67zM177 -64q29 0 29 -27 q0 -8 -2 -18.5t-4 -16.5q-9 -34 -27.5 -63.5t-53.5 -63.5q-6 -6 -12 -1l-12 10q-5 5 1 11q13 13 25.5 28.5t20.5 29.5q9 16 -3 22l-8 4q-11 5 -11 20q0 3 2 13t5 23q6 29 37 29h13z" />
<glyph unicode="&#x138;" horiz-adv-x="428" d="M64 7q-1 -7 -9 -7h-27q-8 0 -7 8l92 475q1 7 9 7h28q7 0 6 -7l-38 -202h58q10 0 17 3t16 14l165 186q5 6 12 6h33q13 0 4 -10l-190 -212q-4 -6 -4 -8q0 -3 2 -7l112 -245q4 -8 -5 -8h-30q-8 0 -12 8l-99 221q-3 7 -7 9.5t-13 2.5h-67z" />
<glyph unicode="&#x139;" horiz-adv-x="358" d="M26 0zM134 638q1 9 11 9h26q10 0 9 -9l-103 -531q-5 -28 -5 -42q0 -24 32 -24h177q9 0 8 -8l-4 -24q-1 -9 -11 -9h-178q-38 0 -54 16t-16 44q0 11 2 25.5t6 35.5zM306 819q11 4 16 -6l11 -24q5 -9 0.5 -14.5t-13.5 -8.5l-194 -70q-8 -3 -11 3l-10 25q-3 8 5 11z" />
<glyph unicode="&#x13a;" horiz-adv-x="243" d="M36 0zM150 670q1 7 9 7h28q7 0 6 -7l-108 -560q-3 -14 -4 -25.5t-1 -16.5q0 -15 7.5 -22.5t28.5 -7.5h46q7 0 6 -7l-4 -24q-1 -7 -12 -7h-42q-41 0 -57.5 15t-16.5 45q0 20 6 52zM322 863q11 4 16 -6l11 -24q5 -9 0.5 -14.5t-13.5 -8.5l-194 -70q-8 -3 -11 3l-10 25 q-3 8 5 11z" />
<glyph unicode="&#x13b;" horiz-adv-x="358" d="M26 0zM134 638q1 9 11 9h26q10 0 9 -9l-103 -531q-5 -28 -5 -42q0 -24 32 -24h177q9 0 8 -8l-4 -24q-1 -9 -11 -9h-178q-38 0 -54 16t-16 44q0 11 2 25.5t6 35.5zM141 -64q29 0 29 -27q0 -8 -2 -18.5t-4 -16.5q-9 -34 -27.5 -63.5t-53.5 -63.5q-6 -6 -12 -1l-12 10 q-5 5 1 11q13 13 25.5 28.5t20.5 29.5q9 16 -3 22l-8 4q-11 5 -11 20q0 3 2 13t5 23q6 29 37 29h13z" />
<glyph unicode="&#x13c;" horiz-adv-x="243" d="M0 0zM150 670q1 7 9 7h28q7 0 6 -7l-108 -560q-3 -14 -4 -25.5t-1 -16.5q0 -15 7.5 -22.5t28.5 -7.5h46q7 0 6 -7l-4 -24q-1 -7 -12 -7h-42q-41 0 -57.5 15t-16.5 45q0 20 6 52zM84 -64q29 0 29 -27q0 -8 -2 -18.5t-4 -16.5q-9 -34 -27.5 -63.5t-53.5 -63.5q-6 -6 -12 -1 l-12 10q-5 5 1 11q13 13 25.5 28.5t20.5 29.5q9 16 -3 22l-8 4q-11 5 -11 20q0 3 2 13t5 23q6 29 37 29h13z" />
<glyph unicode="&#x13d;" horiz-adv-x="358" d="M26 0zM134 638q1 9 11 9h26q10 0 9 -9l-103 -531q-5 -28 -5 -42q0 -24 32 -24h177q9 0 8 -8l-4 -24q-1 -9 -11 -9h-178q-38 0 -54 16t-16 44q0 11 2 25.5t6 35.5zM323 646q29 0 29 -27q0 -8 -2 -18.5t-4 -16.5q-9 -34 -27.5 -63.5t-53.5 -63.5q-6 -6 -12 -1l-12 10 q-5 5 1 11q13 13 25.5 28.5t20.5 29.5q9 16 -3 22l-8 4q-11 5 -11 20q0 3 2 13t5 23q6 29 37 29h13z" />
<glyph unicode="&#x13e;" horiz-adv-x="243" d="M36 0zM150 670q1 7 9 7h28q7 0 6 -7l-108 -560q-3 -14 -4 -25.5t-1 -16.5q0 -15 7.5 -22.5t28.5 -7.5h46q7 0 6 -7l-4 -24q-1 -7 -12 -7h-42q-41 0 -57.5 15t-16.5 45q0 20 6 52zM295 679q29 0 29 -27q0 -8 -2 -18.5t-4 -16.5q-9 -34 -27.5 -63.5t-53.5 -63.5 q-6 -6 -12 -1l-12 10q-5 5 1 11q13 13 25.5 28.5t20.5 29.5q9 16 -3 22l-8 4q-11 5 -11 20q0 3 2 13t5 23q6 29 37 29h13z" />
<glyph unicode="&#x13f;" horiz-adv-x="343" d="M26 0zM134 638q1 9 11 9h26q10 0 9 -9l-103 -531q-5 -28 -5 -42q0 -24 32 -24h177q9 0 8 -8l-4 -24q-1 -9 -11 -9h-178q-38 0 -54 16t-16 44q0 11 2 25.5t6 35.5zM259 294q-19 0 -33.5 12t-14.5 36q0 26 17.5 46t47.5 20q19 0 33.5 -12t14.5 -36q0 -26 -17.5 -46 t-47.5 -20z" />
<glyph unicode="&#x140;" horiz-adv-x="286" d="M36 0zM150 670q1 7 9 7h28q7 0 6 -7l-108 -560q-3 -14 -4 -25.5t-1 -16.5q0 -15 7.5 -22.5t28.5 -7.5h46q7 0 6 -7l-4 -24q-1 -7 -12 -7h-42q-41 0 -57.5 15t-16.5 45q0 20 6 52zM246 320q-19 0 -33.5 12t-14.5 36q0 26 17.5 46t47.5 20q19 0 33.5 -12t14.5 -36 q0 -26 -17.5 -46t-47.5 -20z" />
<glyph unicode="&#x141;" horiz-adv-x="359" d="M65 273l-76 -44q-13 -7 -11 7l5 30q1 9 9 13l83 48l60 311q1 9 11 9h26q10 0 9 -9l-55 -281l129 75q13 6 11 -7l-5 -31q-1 -5 -2.5 -7t-6.5 -5l-136 -80l-38 -195q-5 -28 -5 -42q0 -24 32 -24h177q9 0 8 -8l-4 -24q-1 -9 -11 -9h-178q-38 0 -54 16t-16 44q0 11 2 25.5 t6 35.5z" />
<glyph unicode="&#x142;" horiz-adv-x="243" d="M77 294l-87 -51q-15 -8 -13 5l4 27q1 5 3.5 8.5t9.5 7.5l93 54l63 325q1 7 9 7h28q7 0 6 -7l-57 -296l130 76q15 8 13 -5l-4 -27q-1 -5 -3.5 -8.5t-9.5 -7.5l-136 -80l-41 -212q-3 -14 -4 -25.5t-1 -16.5q0 -15 7.5 -22.5t28.5 -7.5h46q7 0 6 -7l-4 -24q-1 -7 -12 -7h-42 q-41 0 -57.5 13.5t-16.5 45.5q0 21 6 53z" />
<glyph unicode="&#x143;" horiz-adv-x="578" d="M10 0zM522 637q2 10 12 10h24q10 0 7 -11l-117 -606q-3 -17 -10.5 -23.5t-25.5 -6.5h-18q-17 0 -25.5 7t-13.5 24l-176 575h-7l-116 -596q-3 -10 -12 -10h-24q-10 0 -7 11l117 606q3 17 10.5 23.5t25.5 6.5h18q17 0 25.5 -7t13.5 -24l176 -575h7zM479 819q11 4 16 -6 l11 -24q5 -9 0.5 -14.5t-13.5 -8.5l-194 -70q-8 -3 -11 3l-10 25q-3 8 5 11z" />
<glyph unicode="&#x144;" horiz-adv-x="485" d="M17 0zM146 434q22 30 59.5 47.5t97.5 17.5q67 0 96 -28t29 -79q0 -23 -5.5 -57t-13.5 -75l-48 -253q-1 -7 -9 -7h-27q-8 0 -7 8l55 286q6 31 9 52t3 36q0 38 -21 58t-72 20q-32 0 -60 -7.5t-50.5 -26t-38.5 -49t-25 -75.5l-57 -295q-1 -7 -9 -7h-27q-8 0 -7 8l92 477 q1 5 7 5h26q7 0 6 -7l-5 -49h2zM414 715q11 4 16 -6l11 -24q5 -9 0.5 -14.5t-13.5 -8.5l-194 -70q-8 -3 -11 3l-10 25q-3 8 5 11z" />
<glyph unicode="&#x145;" horiz-adv-x="578" d="M10 0zM522 637q2 10 12 10h24q10 0 7 -11l-117 -606q-3 -17 -10.5 -23.5t-25.5 -6.5h-18q-17 0 -25.5 7t-13.5 24l-176 575h-7l-116 -596q-3 -10 -12 -10h-24q-10 0 -7 11l117 606q3 17 10.5 23.5t25.5 6.5h18q17 0 25.5 -7t13.5 -24l176 -575h7zM233 -64q29 0 29 -27 q0 -8 -2 -18.5t-4 -16.5q-9 -34 -27.5 -63.5t-53.5 -63.5q-6 -6 -12 -1l-12 10q-5 5 1 11q13 13 25.5 28.5t20.5 29.5q9 16 -3 22l-8 4q-11 5 -11 20q0 3 2 13t5 23q6 29 37 29h13z" />
<glyph unicode="&#x146;" horiz-adv-x="485" d="M17 0zM146 434q22 30 59.5 47.5t97.5 17.5q67 0 96 -28t29 -79q0 -23 -5.5 -57t-13.5 -75l-48 -253q-1 -7 -9 -7h-27q-8 0 -7 8l55 286q6 31 9 52t3 36q0 38 -21 58t-72 20q-32 0 -60 -7.5t-50.5 -26t-38.5 -49t-25 -75.5l-57 -295q-1 -7 -9 -7h-27q-8 0 -7 8l92 477 q1 5 7 5h26q7 0 6 -7l-5 -49h2zM188 -64q29 0 29 -27q0 -8 -2 -18.5t-4 -16.5q-9 -34 -27.5 -63.5t-53.5 -63.5q-6 -6 -12 -1l-12 10q-5 5 1 11q13 13 25.5 28.5t20.5 29.5q9 16 -3 22l-8 4q-11 5 -11 20q0 3 2 13t5 23q6 29 37 29h13z" />
<glyph unicode="&#x147;" horiz-adv-x="578" d="M10 0zM522 637q2 10 12 10h24q10 0 7 -11l-117 -606q-3 -17 -10.5 -23.5t-25.5 -6.5h-18q-17 0 -25.5 7t-13.5 24l-176 575h-7l-116 -596q-3 -10 -12 -10h-24q-10 0 -7 11l117 606q3 17 10.5 23.5t25.5 6.5h18q17 0 25.5 -7t13.5 -24l176 -575h7zM236 825q-6 9 3 16 l17 13q10 6 17 -3l84 -101h6l116 101q6 5 10 4.5t7 -3.5l17 -17q9 -7 -1 -16l-126 -113q-5 -5 -9 -6.5t-10 -1.5h-19q-7 0 -10.5 1.5t-8.5 8.5z" />
<glyph unicode="&#x148;" horiz-adv-x="485" d="M17 0zM146 434q22 30 59.5 47.5t97.5 17.5q67 0 96 -28t29 -79q0 -23 -5.5 -57t-13.5 -75l-48 -253q-1 -7 -9 -7h-27q-8 0 -7 8l55 286q6 31 9 52t3 36q0 38 -21 58t-72 20q-32 0 -60 -7.5t-50.5 -26t-38.5 -49t-25 -75.5l-57 -295q-1 -7 -9 -7h-27q-8 0 -7 8l92 477 q1 5 7 5h26q7 0 6 -7l-5 -49h2zM188 709q-6 9 3 16l17 13q10 6 17 -3l84 -101h6l116 101q6 5 10 4.5t7 -3.5l17 -17q9 -7 -1 -16l-126 -113q-5 -5 -9 -6.5t-10 -1.5h-19q-7 0 -10.5 1.5t-8.5 8.5z" />
<glyph unicode="&#x149;" horiz-adv-x="485" d="M6 0zM146 434q22 30 59.5 47.5t97.5 17.5q67 0 96 -28t29 -79q0 -23 -5.5 -57t-13.5 -75l-48 -253q-1 -7 -9 -7h-27q-8 0 -7 8l55 286q6 31 9 52t3 36q0 38 -21 58t-72 20q-32 0 -60 -7.5t-50.5 -26t-38.5 -49t-25 -75.5l-57 -295q-1 -7 -9 -7h-27q-8 0 -7 8l92 477 q1 5 7 5h26q7 0 6 -7l-5 -49h2zM93 681q33 0 33 -26q0 -5 -1 -12t-5 -24q-9 -38 -28.5 -75.5t-52.5 -75.5q-6 -7 -12 -3l-14 10q-7 5 0 12q17 20 29.5 39.5t20.5 36.5q6 13 -4 18l-9 4q-15 6 -15 19q0 6 1 14.5t6 29.5q7 33 38 33h13z" />
<glyph unicode="&#x14a;" horiz-adv-x="578" d="M522 637q2 10 12 10h24q10 0 7 -11l-119 -616q-11 -57 -23.5 -98t-30.5 -66.5t-44.5 -37.5t-66.5 -12h-26q-11 0 -10 9l4 23q1 8 9 8h21q52 0 77.5 29t37.5 86l8 39h-8q-17 0 -25.5 7t-13.5 24l-176 575h-7l-116 -596q-3 -10 -12 -10h-24q-10 0 -7 11l117 606 q3 17 10.5 23.5t25.5 6.5h18q17 0 25.5 -7t13.5 -24l176 -575h7z" />
<glyph unicode="&#x14b;" horiz-adv-x="485" d="M373 294q6 31 9 52t3 36q0 38 -21 58t-72 20q-32 0 -60 -7.5t-50.5 -26t-38.5 -49t-25 -75.5l-57 -295q-1 -7 -9 -7h-27q-8 0 -7 8l92 477q1 5 7 5h26q7 0 6 -7l-5 -49h2q22 30 59.5 47.5t97.5 17.5q67 0 96 -28t29 -79q0 -23 -5.5 -57t-13.5 -75l-42 -221 q-11 -61 -27 -98t-41 -57q-21 -17 -47 -24.5t-59 -7.5h-30q-9 0 -7 8l4 25q1 7 9 7h29q24 0 42.5 4.5t33.5 18.5q17 14 28.5 45.5t22.5 84.5z" />
<glyph unicode="&#x14c;" horiz-adv-x="567" d="M40 0zM231 32q42 0 74 10t56 34t42.5 64t34.5 100q9 33 16 66.5t12 65t8 57.5t3 44q0 76 -32 109t-107 33q-44 0 -77.5 -11t-59 -36t-44 -65t-31.5 -97q-17 -71 -27.5 -133t-10.5 -103q0 -70 31.5 -104t111.5 -34zM230 -9q-90 0 -140 38t-50 134q0 48 11.5 112t28.5 142 q13 62 34 107t52.5 74.5t74.5 43.5t101 14q86 0 134.5 -39t48.5 -135q0 -49 -11 -113t-30 -139q-16 -65 -38 -110t-52 -74t-70.5 -42t-93.5 -13zM243 730q-11 0 -8 12l6 27q3 11 12 11h231q11 0 8 -12l-6 -27q-3 -11 -12 -11h-231z" />
<glyph unicode="&#x14d;" d="M31 0zM184 30q37 0 63.5 9.5t45.5 30.5t32.5 55.5t24.5 84.5q11 48 16.5 88.5t5.5 64.5q0 50 -24 73.5t-84 23.5q-38 0 -64.5 -9.5t-45.5 -30.5t-32 -55.5t-24 -84.5q-11 -48 -16.5 -88.5t-5.5 -64.5q0 -45 22.5 -71t85.5 -26zM177 -9q-78 0 -112 33t-34 98 q0 34 6.5 75.5t19.5 101.5q12 56 30 94.5t43.5 62t60.5 33.5t81 10q75 0 110 -33t35 -91q0 -33 -6 -80.5t-20 -103.5q-13 -54 -30 -92t-42 -62t-59.5 -35t-82.5 -11zM177 634q-11 0 -8 12l6 27q3 11 12 11h231q11 0 8 -12l-6 -27q-3 -11 -12 -11h-231z" />
<glyph unicode="&#x14e;" horiz-adv-x="567" d="M40 0zM231 32q42 0 74 10t56 34t42.5 64t34.5 100q9 33 16 66.5t12 65t8 57.5t3 44q0 76 -32 109t-107 33q-44 0 -77.5 -11t-59 -36t-44 -65t-31.5 -97q-17 -71 -27.5 -133t-10.5 -103q0 -70 31.5 -104t111.5 -34zM230 -9q-90 0 -140 38t-50 134q0 48 11.5 112t28.5 142 q13 62 34 107t52.5 74.5t74.5 43.5t101 14q86 0 134.5 -39t48.5 -135q0 -49 -11 -113t-30 -139q-16 -65 -38 -110t-52 -74t-70.5 -42t-93.5 -13zM363 694q-53 0 -86 27t-42 83q-1 10 8 13l24 5q11 2 13 -8q10 -42 30 -59.5t55 -17.5q37 0 63.5 17.5t49.5 62.5q5 10 15 7 l22 -8q6 -2 6.5 -5.5t-1.5 -8.5q-26 -56 -66 -82t-91 -26z" />
<glyph unicode="&#x14f;" d="M31 0zM184 30q37 0 63.5 9.5t45.5 30.5t32.5 55.5t24.5 84.5q11 48 16.5 88.5t5.5 64.5q0 50 -24 73.5t-84 23.5q-38 0 -64.5 -9.5t-45.5 -30.5t-32 -55.5t-24 -84.5q-11 -48 -16.5 -88.5t-5.5 -64.5q0 -45 22.5 -71t85.5 -26zM177 -9q-78 0 -112 33t-34 98 q0 34 6.5 75.5t19.5 101.5q12 56 30 94.5t43.5 62t60.5 33.5t81 10q75 0 110 -33t35 -91q0 -33 -6 -80.5t-20 -103.5q-13 -54 -30 -92t-42 -62t-59.5 -35t-82.5 -11zM290 585q-53 0 -86 27t-42 83q-1 10 8 13l24 5q11 2 13 -8q10 -42 30 -59.5t55 -17.5q37 0 63.5 17.5 t49.5 62.5q5 10 15 7l22 -8q6 -2 6.5 -5.5t-1.5 -8.5q-26 -56 -66 -82t-91 -26z" />
<glyph unicode="&#x150;" horiz-adv-x="567" d="M40 0zM231 32q42 0 74 10t56 34t42.5 64t34.5 100q9 33 16 66.5t12 65t8 57.5t3 44q0 76 -32 109t-107 33q-44 0 -77.5 -11t-59 -36t-44 -65t-31.5 -97q-17 -71 -27.5 -133t-10.5 -103q0 -70 31.5 -104t111.5 -34zM230 -9q-90 0 -140 38t-50 134q0 48 11.5 112t28.5 142 q13 62 34 107t52.5 74.5t74.5 43.5t101 14q86 0 134.5 -39t48.5 -135q0 -49 -11 -113t-30 -139q-16 -65 -38 -110t-52 -74t-70.5 -42t-93.5 -13zM375 837q12 8 21 -3l11 -16q11 -17 -5 -26l-172 -99q-10 -6 -16 3l-11 15q-2 4 -2 7t5 7zM573 837q12 8 21 -3l11 -16 q11 -17 -5 -26l-172 -99q-10 -6 -16 3l-11 15q-2 4 -2 7t5 7z" />
<glyph unicode="&#x151;" d="M31 0zM184 30q37 0 63.5 9.5t45.5 30.5t32.5 55.5t24.5 84.5q11 48 16.5 88.5t5.5 64.5q0 50 -24 73.5t-84 23.5q-38 0 -64.5 -9.5t-45.5 -30.5t-32 -55.5t-24 -84.5q-11 -48 -16.5 -88.5t-5.5 -64.5q0 -45 22.5 -71t85.5 -26zM177 -9q-78 0 -112 33t-34 98 q0 34 6.5 75.5t19.5 101.5q12 56 30 94.5t43.5 62t60.5 33.5t81 10q75 0 110 -33t35 -91q0 -33 -6 -80.5t-20 -103.5q-13 -54 -30 -92t-42 -62t-59.5 -35t-82.5 -11zM328 740q12 8 21 -3l11 -16q11 -17 -5 -26l-172 -99q-10 -6 -16 3l-11 15q-2 4 -2 7t5 7zM526 740 q12 8 21 -3l11 -16q11 -17 -5 -26l-172 -99q-10 -6 -16 3l-11 15q-2 4 -2 7t5 7z" />
<glyph unicode="&#x152;" horiz-adv-x="821" d="M486 0q-47 0 -70.5 18.5t-21.5 57.5q-20 -38 -66.5 -61.5t-101.5 -23.5q-44 0 -78.5 9t-58.5 29t-37 52.5t-13 79.5q0 49 12 112.5t29 143.5q13 62 34 107t52 74.5t73.5 43.5t99.5 14q53 0 90.5 -18.5t57.5 -57.5q14 36 39.5 51.5t79.5 15.5h211q11 0 9 -10l-4 -21 q-2 -6 -4 -7.5t-8 -1.5h-210q-36 0 -52.5 -15.5t-26.5 -58.5l-17 -76.5t-22 -101.5h254q11 0 9 -10l-5 -22q-2 -5 -4 -7t-8 -2h-255q-12 -60 -19 -103t-12 -69q-6 -38 -6 -58q0 -23 13.5 -33t43.5 -10h222q10 0 9 -10l-4 -21q-2 -6 -4 -8t-8 -2h-222zM407 210 q11 60 23 119.5t26 125.5q6 28 6 50q0 32 -12 53t-30.5 34t-40 18t-41.5 5q-44 0 -77.5 -11t-59 -36t-44 -65t-31.5 -97q-17 -71 -27.5 -133t-10.5 -103q0 -70 31 -104t106 -34q68 0 116.5 42t65.5 136z" />
<glyph unicode="&#x153;" horiz-adv-x="749" d="M687 231q-2 -7 -6 -11.5t-15 -4.5h-270l-3 -14q-6 -42 -6 -74q0 -27 6 -45.5t20 -30t37 -16.5t57 -5q30 0 67 7t63 17q10 4 11 -5l4 -19q1 -8 -7 -12q-34 -13 -72 -20t-72 -7q-73 0 -110.5 24.5t-39.5 70.5q-20 -46 -62.5 -70.5t-111.5 -24.5q-78 0 -112 33t-34 98 q0 34 6.5 75.5t19.5 101.5q12 56 30 94.5t43.5 62t60.5 33.5t81 10q56 0 89 -19t44 -62q20 45 62.5 63t99.5 18q74 0 107.5 -30t33.5 -90q0 -14 -2 -32t-5 -37.5t-6.5 -40t-7.5 -38.5zM184 30q37 0 63.5 9.5t45.5 30.5t32.5 55.5t24.5 84.5q11 48 16.5 88t5.5 62 q0 52 -24 76t-84 24q-38 0 -64.5 -9.5t-45.5 -30.5t-32 -55.5t-24 -84.5q-11 -48 -16.5 -88.5t-5.5 -64.5q0 -45 22.5 -71t85.5 -26zM412 303q-2 -12 -4 -24.5t-4 -25.5h230q12 0 15 14q7 32 11 59.5t4 47.5q0 48 -26.5 67t-76.5 19q-32 0 -56 -6.5t-42 -23.5t-30 -46.5 t-20 -74.5z" />
<glyph unicode="&#x154;" horiz-adv-x="491" d="M11 0zM191 610q-11 -2 -14.5 -6t-5.5 -15l-51 -261q20 -1 43.5 -1.5t49.5 -0.5q54 0 91 9t61 33q27 27 41.5 67t14.5 77q0 31 -10 51.5t-30.5 31.5t-51.5 15.5t-72 4.5q-22 0 -37.5 -1.5t-28.5 -3.5zM148 646q20 5 50 7.5t65 2.5q100 0 152.5 -30t52.5 -104 q0 -41 -10 -78.5t-30.5 -68.5t-51.5 -52t-73 -29l113 -284q4 -10 -6 -10h-30q-10 0 -14 9l-106 268q-2 6 -5.5 7.5t-8.5 1.5q-16 -1 -33 -1.5t-32 -0.5q-17 0 -35.5 0.5t-33.5 1.5l-53 -277q-1 -9 -11 -9h-26q-11 0 -9 9l119 618q3 16 16 19zM429 819q11 4 16 -6l11 -24 q5 -9 0.5 -14.5t-13.5 -8.5l-194 -70q-8 -3 -11 3l-10 25q-3 8 5 11z" />
<glyph unicode="&#x155;" horiz-adv-x="292" d="M17 0zM145 431q22 32 52 45.5t68 13.5h37q8 0 7 -7l-6 -26q-2 -7 -10 -7h-32q-35 0 -59.5 -12t-41.5 -34.5t-28.5 -55.5t-19.5 -76l-51 -265q-1 -7 -9 -7h-27q-8 0 -7 8l92 477q1 5 7 5h26q7 0 6 -7l-6 -52h2zM355 715q11 4 16 -6l11 -24q5 -9 0.5 -14.5t-13.5 -8.5 l-194 -70q-8 -3 -11 3l-10 25q-3 8 5 11z" />
<glyph unicode="&#x156;" horiz-adv-x="491" d="M11 0zM191 610q-11 -2 -14.5 -6t-5.5 -15l-51 -261q20 -1 43.5 -1.5t49.5 -0.5q54 0 91 9t61 33q27 27 41.5 67t14.5 77q0 31 -10 51.5t-30.5 31.5t-51.5 15.5t-72 4.5q-22 0 -37.5 -1.5t-28.5 -3.5zM148 646q20 5 50 7.5t65 2.5q100 0 152.5 -30t52.5 -104 q0 -41 -10 -78.5t-30.5 -68.5t-51.5 -52t-73 -29l113 -284q4 -10 -6 -10h-30q-10 0 -14 9l-106 268q-2 6 -5.5 7.5t-8.5 1.5q-16 -1 -33 -1.5t-32 -0.5q-17 0 -35.5 0.5t-33.5 1.5l-53 -277q-1 -9 -11 -9h-26q-11 0 -9 9l119 618q3 16 16 19zM202 -64q29 0 29 -27 q0 -8 -2 -18.5t-4 -16.5q-9 -34 -27.5 -63.5t-53.5 -63.5q-6 -6 -12 -1l-12 10q-5 5 1 11q13 13 25.5 28.5t20.5 29.5q9 16 -3 22l-8 4q-11 5 -11 20q0 3 2 13t5 23q6 29 37 29h13z" />
<glyph unicode="&#x157;" horiz-adv-x="292" d="M0 0zM145 431q22 32 52 45.5t68 13.5h37q8 0 7 -7l-6 -26q-2 -7 -10 -7h-32q-35 0 -59.5 -12t-41.5 -34.5t-28.5 -55.5t-19.5 -76l-51 -265q-1 -7 -9 -7h-27q-8 0 -7 8l92 477q1 5 7 5h26q7 0 6 -7l-6 -52h2zM32 -64q29 0 29 -27q0 -8 -2 -18.5t-4 -16.5 q-9 -34 -27.5 -63.5t-53.5 -63.5q-6 -6 -12 -1l-12 10q-5 5 1 11q13 13 25.5 28.5t20.5 29.5q9 16 -3 22l-8 4q-11 5 -11 20q0 3 2 13t5 23q6 29 37 29h13z" />
<glyph unicode="&#x158;" horiz-adv-x="491" d="M11 0zM191 610q-11 -2 -14.5 -6t-5.5 -15l-51 -261q20 -1 43.5 -1.5t49.5 -0.5q54 0 91 9t61 33q27 27 41.5 67t14.5 77q0 31 -10 51.5t-30.5 31.5t-51.5 15.5t-72 4.5q-22 0 -37.5 -1.5t-28.5 -3.5zM148 646q20 5 50 7.5t65 2.5q100 0 152.5 -30t52.5 -104 q0 -41 -10 -78.5t-30.5 -68.5t-51.5 -52t-73 -29l113 -284q4 -10 -6 -10h-30q-10 0 -14 9l-106 268q-2 6 -5.5 7.5t-8.5 1.5q-16 -1 -33 -1.5t-32 -0.5q-17 0 -35.5 0.5t-33.5 1.5l-53 -277q-1 -9 -11 -9h-26q-11 0 -9 9l119 618q3 16 16 19zM174 825q-6 9 3 16l17 13 q10 6 17 -3l84 -101h6l116 101q6 5 10 4.5t7 -3.5l17 -17q9 -7 -1 -16l-126 -113q-5 -5 -9 -6.5t-10 -1.5h-19q-7 0 -10.5 1.5t-8.5 8.5z" />
<glyph unicode="&#x159;" horiz-adv-x="292" d="M17 0zM145 431q22 32 52 45.5t68 13.5h37q8 0 7 -7l-6 -26q-2 -7 -10 -7h-32q-35 0 -59.5 -12t-41.5 -34.5t-28.5 -55.5t-19.5 -76l-51 -265q-1 -7 -9 -7h-27q-8 0 -7 8l92 477q1 5 7 5h26q7 0 6 -7l-6 -52h2zM93 709q-6 9 3 16l17 13q10 6 17 -3l84 -101h6l116 101 q6 5 10 4.5t7 -3.5l17 -17q9 -7 -1 -16l-126 -113q-5 -5 -9 -6.5t-10 -1.5h-19q-7 0 -10.5 1.5t-8.5 8.5z" />
<glyph unicode="&#x15a;" horiz-adv-x="479" d="M0 0zM168 -9q-45 0 -87.5 9t-74.5 24q-9 4 -5 14l8 20q4 11 15 5q32 -15 69.5 -23t71.5 -8q69 0 113 26t61 86q5 19 8.5 37.5t3.5 32.5q0 36 -19 56t-71 34l-78 20q-53 13 -76 39t-23 74q0 20 5 46.5t13 52.5q16 55 61.5 87.5t135.5 32.5q75 0 141 -23q7 -2 8 -5.5 t-1 -8.5l-6 -19q-3 -8 -16 -4q-66 19 -130 19q-70 0 -103 -24.5t-47 -74.5q-5 -18 -8.5 -37t-3.5 -38q0 -27 13.5 -46t55.5 -30l81 -21q67 -17 92 -45t25 -77q0 -16 -4 -38.5t-11 -45.5q-22 -75 -76 -111t-141 -36zM412 819q11 4 16 -6l11 -24q5 -9 0.5 -14.5t-13.5 -8.5 l-194 -70q-8 -3 -11 3l-10 25q-3 8 5 11z" />
<glyph unicode="&#x15b;" horiz-adv-x="392" d="M0 0zM3 51q4 9 14 5q26 -11 57.5 -18.5t63.5 -7.5q49 0 78 14t45 46q8 15 12 34.5t4 36.5q0 23 -17.5 38t-58.5 27l-55 16q-53 15 -71.5 38t-18.5 55q0 16 2.5 31.5t8.5 35.5q16 51 57 74t103 23q30 0 61 -5.5t57 -15.5q9 -4 6 -13l-7 -19q-3 -9 -13 -5q-51 18 -109 18 q-51 0 -76.5 -16t-36.5 -47q-10 -29 -10 -56q0 -20 13 -35t54 -27l54 -16q30 -9 49 -18.5t30.5 -21t15.5 -26t4 -33.5q0 -22 -5.5 -44.5t-13.5 -40.5q-20 -50 -64 -68.5t-99 -18.5q-74 0 -136 28q-9 4 -5 14l7 18v0zM359 715q11 4 16 -6l11 -24q5 -9 0.5 -14.5t-13.5 -8.5 l-194 -70q-8 -3 -11 3l-10 25q-3 8 5 11z" />
<glyph unicode="&#x15c;" horiz-adv-x="479" d="M0 0zM168 -9q-45 0 -87.5 9t-74.5 24q-9 4 -5 14l8 20q4 11 15 5q32 -15 69.5 -23t71.5 -8q69 0 113 26t61 86q5 19 8.5 37.5t3.5 32.5q0 36 -19 56t-71 34l-78 20q-53 13 -76 39t-23 74q0 20 5 46.5t13 52.5q16 55 61.5 87.5t135.5 32.5q75 0 141 -23q7 -2 8 -5.5 t-1 -8.5l-6 -19q-3 -8 -16 -4q-66 19 -130 19q-70 0 -103 -24.5t-47 -74.5q-5 -18 -8.5 -37t-3.5 -38q0 -27 13.5 -46t55.5 -30l81 -21q67 -17 92 -45t25 -77q0 -16 -4 -38.5t-11 -45.5q-22 -75 -76 -111t-141 -36zM443 723q3 -5 3 -7q0 -5 -6 -9l-17 -13q-5 -3 -8 -3 q-5 0 -9 6l-84 101h-6l-116 -101q-7 -5 -10 -5t-7 4l-17 17q-4 3 -4 7q0 5 5 9l124 111q10 10 21 10h19q7 0 10.5 -1.5t8.5 -8.5z" />
<glyph unicode="&#x15d;" horiz-adv-x="392" d="M0 0zM3 51q4 9 14 5q26 -11 57.5 -18.5t63.5 -7.5q49 0 78 14t45 46q8 15 12 34.5t4 36.5q0 23 -17.5 38t-58.5 27l-55 16q-53 15 -71.5 38t-18.5 55q0 16 2.5 31.5t8.5 35.5q16 51 57 74t103 23q30 0 61 -5.5t57 -15.5q9 -4 6 -13l-7 -19q-3 -9 -13 -5q-51 18 -109 18 q-51 0 -76.5 -16t-36.5 -47q-10 -29 -10 -56q0 -20 13 -35t54 -27l54 -16q30 -9 49 -18.5t30.5 -21t15.5 -26t4 -33.5q0 -22 -5.5 -44.5t-13.5 -40.5q-20 -50 -64 -68.5t-99 -18.5q-74 0 -136 28q-9 4 -5 14l7 18v0zM378 618q6 -9 -3 -16l-17 -13q-10 -6 -17 3l-84 101h-6 l-116 -101q-6 -5 -10 -4.5t-7 3.5l-17 17q-9 7 1 16l124 111q10 10 21 10h19q7 0 10.5 -1.5t8.5 -8.5z" />
<glyph unicode="&#x15e;" horiz-adv-x="479" d="M161 -70q10 3 21.5 4.5t22.5 1.5q26 0 41.5 -15.5t15.5 -44.5q0 -23 -5.5 -42t-19 -32.5t-36.5 -21.5t-58 -8q-17 0 -37.5 3.5t-37.5 9.5q-9 3 -6 11l6 19q3 7 10 4q16 -6 35 -9.5t34 -3.5q35 0 53.5 13t18.5 52q0 29 -34 29q-14 0 -27.5 -2t-24.5 -4q-8 -1 -12 4l-6 8 q-4 5 0 13l37 72q-42 2 -79.5 10.5t-66.5 22.5q-9 4 -5 14l8 20q4 11 15 5q32 -15 69.5 -23t71.5 -8q69 0 113 26t61 86q5 19 8.5 37.5t3.5 32.5q0 36 -19 56t-71 34l-78 20q-53 13 -76 39t-23 74q0 20 5 46.5t13 52.5q16 55 61.5 87.5t135.5 32.5q75 0 141 -23q7 -2 8 -5.5 t-1 -8.5l-6 -19q-3 -8 -16 -4q-66 19 -130 19q-70 0 -103 -24.5t-47 -74.5q-5 -18 -8.5 -37t-3.5 -38q0 -27 13.5 -46t55.5 -30l81 -21q67 -17 92 -45t25 -77q0 -16 -4 -38.5t-11 -45.5q-20 -70 -68.5 -105.5t-124.5 -40.5q0 -1 -2 -5z" />
<glyph unicode="&#x15f;" horiz-adv-x="392" d="M67 403q16 50 57 73t103 23q30 0 61 -5.5t57 -15.5q9 -4 6 -13l-7 -19q-3 -9 -13 -5q-51 18 -109 18q-50 0 -76 -16t-37 -47q-10 -29 -10 -56q0 -20 13 -35t54 -27l54 -16q30 -9 49 -18.5t30.5 -21t15.5 -26t4 -33.5q0 -22 -5.5 -44.5t-13.5 -40.5q-18 -44 -53.5 -63 t-83.5 -23q0 -1 -2 -5l-29 -57q10 3 21.5 4.5t22.5 1.5q26 0 41.5 -15.5t15.5 -44.5q0 -23 -5.5 -42t-19 -32.5t-36.5 -21.5t-58 -8q-17 0 -37.5 3.5t-37.5 9.5q-9 3 -6 11l6 19q3 7 10 4q16 -6 35 -9.5t34 -3.5q35 0 53.5 13t18.5 52q0 29 -34 29q-14 0 -27.5 -2t-24.5 -4 q-8 -1 -12 4l-6 8q-4 5 0 13l37 72q-31 2 -62.5 8.5t-59.5 19.5q-8 4 -5 14l7 20q3 9 12 5q26 -12 59 -20t64 -8q49 0 78 14t45 46q8 15 12 34.5t4 36.5q0 23 -17.5 38t-58.5 27l-55 16q-53 15 -71.5 38t-18.5 55q0 16 2.5 32t8.5 36z" />
<glyph unicode="&#x160;" horiz-adv-x="479" d="M0 0zM168 -9q-45 0 -87.5 9t-74.5 24q-9 4 -5 14l8 20q4 11 15 5q32 -15 69.5 -23t71.5 -8q69 0 113 26t61 86q5 19 8.5 37.5t3.5 32.5q0 36 -19 56t-71 34l-78 20q-53 13 -76 39t-23 74q0 20 5 46.5t13 52.5q16 55 61.5 87.5t135.5 32.5q75 0 141 -23q7 -2 8 -5.5 t-1 -8.5l-6 -19q-3 -8 -16 -4q-66 19 -130 19q-70 0 -103 -24.5t-47 -74.5q-5 -18 -8.5 -37t-3.5 -38q0 -27 13.5 -46t55.5 -30l81 -21q67 -17 92 -45t25 -77q0 -16 -4 -38.5t-11 -45.5q-22 -75 -76 -111t-141 -36zM187 825q-6 9 3 16l17 13q10 6 17 -3l84 -101h6l116 101 q6 5 10 4.5t7 -3.5l17 -17q9 -7 -1 -16l-126 -113q-5 -5 -9 -6.5t-10 -1.5h-19q-7 0 -10.5 1.5t-8.5 8.5z" />
<glyph unicode="&#x161;" horiz-adv-x="392" d="M0 0zM3 51q4 9 14 5q26 -11 57.5 -18.5t63.5 -7.5q49 0 78 14t45 46q8 15 12 34.5t4 36.5q0 23 -17.5 38t-58.5 27l-55 16q-53 15 -71.5 38t-18.5 55q0 16 2.5 31.5t8.5 35.5q16 51 57 74t103 23q30 0 61 -5.5t57 -15.5q9 -4 6 -13l-7 -19q-3 -9 -13 -5q-51 18 -109 18 q-51 0 -76.5 -16t-36.5 -47q-10 -29 -10 -56q0 -20 13 -35t54 -27l54 -16q30 -9 49 -18.5t30.5 -21t15.5 -26t4 -33.5q0 -22 -5.5 -44.5t-13.5 -40.5q-20 -50 -64 -68.5t-99 -18.5q-74 0 -136 28q-9 4 -5 14l7 18v0zM117 709q-6 9 3 16l17 13q10 6 17 -3l84 -101h6l116 101 q6 5 10 4.5t7 -3.5l17 -17q9 -7 -1 -16l-126 -113q-5 -5 -9 -6.5t-10 -1.5h-19q-7 0 -10.5 1.5t-8.5 8.5z" />
<glyph unicode="&#x162;" horiz-adv-x="458" d="M67 0zM495 647q10 0 9 -9l-5 -24q-1 -8 -11 -8h-183l-116 -597q-1 -9 -11 -9h-27q-11 0 -9 9l116 597h-179q-12 0 -9 10l5 22q1 9 13 9h407zM158 -64q29 0 29 -27q0 -8 -2 -18.5t-4 -16.5q-9 -34 -27.5 -63.5t-53.5 -63.5q-6 -6 -12 -1l-12 10q-5 5 1 11q13 13 25.5 28.5 t20.5 29.5q9 16 -3 22l-8 4q-11 5 -11 20q0 3 2 13t5 23q6 29 37 29h13z" />
<glyph unicode="&#x163;" horiz-adv-x="283" d="M32 0zM159 490h119q7 0 6 -7l-5 -27q-2 -6 -8 -6h-120l-47 -255q-7 -37 -11.5 -63.5t-4.5 -44.5q0 -26 16 -37.5t54 -11.5h55q7 0 6 -7l-5 -24q-1 -7 -9 -7h-55q-51 0 -78 18.5t-27 63.5q0 27 6 59t11 60l46 249h-62q-7 0 -6 8l3 16q1 8 10 9l63 9l23 116q1 7 9 7h28 q7 0 6 -7zM119 -64q29 0 29 -27q0 -8 -2 -18.5t-4 -16.5q-9 -34 -27.5 -63.5t-53.5 -63.5q-6 -6 -12 -1l-12 10q-5 5 1 11q13 13 25.5 28.5t20.5 29.5q9 16 -3 22l-8 4q-11 5 -11 20q0 3 2 13t5 23q6 29 37 29h13z" />
<glyph unicode="&#x164;" horiz-adv-x="458" d="M67 0zM495 647q10 0 9 -9l-5 -24q-1 -8 -11 -8h-183l-116 -597q-1 -9 -11 -9h-27q-11 0 -9 9l116 597h-179q-12 0 -9 10l5 22q1 9 13 9h407zM177 825q-6 9 3 16l17 13q10 6 17 -3l84 -101h6l116 101q6 5 10 4.5t7 -3.5l17 -17q9 -7 -1 -16l-126 -113q-5 -5 -9 -6.5 t-10 -1.5h-19q-7 0 -10.5 1.5t-8.5 8.5z" />
<glyph unicode="&#x165;" horiz-adv-x="283" d="M39 0zM159 490h119q7 0 6 -7l-5 -27q-2 -6 -8 -6h-120l-47 -255q-7 -37 -11.5 -63.5t-4.5 -44.5q0 -26 16 -37.5t54 -11.5h55q7 0 6 -7l-5 -24q-1 -7 -9 -7h-55q-51 0 -78 18.5t-27 63.5q0 27 6 59t11 60l46 249h-62q-7 0 -6 8l3 16q1 8 10 9l63 9l23 116q1 7 9 7h28 q7 0 6 -7zM334 710q29 0 29 -27q0 -8 -2 -18.5t-4 -16.5q-9 -34 -27.5 -63.5t-53.5 -63.5q-6 -6 -12 -1l-12 10q-5 5 1 11q13 13 25.5 28.5t20.5 29.5q9 16 -3 22l-8 4q-11 5 -11 20q0 3 2 13t5 23q6 29 37 29h13z" />
<glyph unicode="&#x166;" horiz-adv-x="458" d="M495 647q10 0 9 -9l-5 -24q-1 -8 -11 -8h-183l-50 -258h155q9 0 8 -7l-4 -25q-1 -6 -9 -6h-158l-58 -301q-1 -9 -11 -9h-27q-11 0 -9 9l58 301h-146q-9 0 -8 7l4 25q1 6 9 6h149l50 258h-179q-12 0 -9 10l5 22q1 9 13 9h407z" />
<glyph unicode="&#x167;" horiz-adv-x="283" d="M84 323l24 127h-62q-7 0 -6 8l3 16q1 8 10 9l63 9l23 116q1 7 9 7h28q7 0 6 -7l-23 -118h119q7 0 6 -7l-5 -27q-2 -6 -8 -6h-120l-24 -128h123q7 0 6 -7l-5 -27q-2 -6 -8 -6h-123l-16 -87q-7 -37 -11.5 -63.5t-4.5 -44.5q0 -26 16 -37.5t54 -11.5h55q7 0 6 -7l-5 -24 q-1 -7 -9 -7h-55q-51 0 -78 18.5t-27 63.5q0 27 6 59t11 60l15 81h-59q-7 0 -6 8l3 16q1 8 10 9z" />
<glyph unicode="&#x168;" horiz-adv-x="557" d="M38 0zM504 638q1 9 11 9h27q10 0 9 -9l-83 -430q-12 -62 -30 -104t-46.5 -67t-70 -35.5t-99.5 -10.5q-40 0 -74 7.5t-58.5 24.5t-38 45t-13.5 69q0 30 6 63.5t12 63.5l72 374q1 9 11 9h27q10 0 9 -9l-83 -424q-5 -24 -6.5 -43t-1.5 -32q0 -32 11.5 -52.5t31 -32.5t45 -17 t53.5 -5q43 0 75.5 7t56 27t39.5 55.5t27 92.5zM199 731q-7 5 -2 12q25 40 53 58t54 18q31 0 59 -24l21 -18q20 -17 37 -17t35 15t35 38q6 7 14 1l16 -13q8 -6 1 -15q-25 -35 -50 -55t-55 -20q-32 0 -60 24l-21 18q-11 9 -19 14.5t-19 5.5q-17 0 -32 -12t-34 -39 q-7 -9 -15 -4z" />
<glyph unicode="&#x169;" horiz-adv-x="476" d="M36 0zM384 168q-11 -53 -25.5 -88t-40.5 -55q-23 -19 -54.5 -26.5t-84.5 -7.5q-74 0 -108.5 28t-34.5 85q0 10 1.5 25.5t6.5 37.5l60 316q1 7 9 7h28q7 0 6 -7l-60 -311q-8 -38 -8 -65q0 -38 24 -57.5t82 -19.5q39 0 63 6t42 21q20 17 32 46t21 74l59 306q1 7 9 7h28 q7 0 6 -7zM145 624q-7 5 -2 12q25 40 53 58t54 18q31 0 59 -24l21 -18q20 -17 37 -17t35 15t35 38q6 7 14 1l16 -13q8 -6 1 -15q-25 -35 -50 -55t-55 -20q-32 0 -60 24l-21 18q-11 9 -19 14.5t-19 5.5q-17 0 -32 -12t-34 -39q-7 -9 -15 -4z" />
<glyph unicode="&#x16a;" horiz-adv-x="557" d="M38 0zM504 638q1 9 11 9h27q10 0 9 -9l-83 -430q-12 -62 -30 -104t-46.5 -67t-70 -35.5t-99.5 -10.5q-40 0 -74 7.5t-58.5 24.5t-38 45t-13.5 69q0 30 6 63.5t12 63.5l72 374q1 9 11 9h27q10 0 9 -9l-83 -424q-5 -24 -6.5 -43t-1.5 -32q0 -32 11.5 -52.5t31 -32.5t45 -17 t53.5 -5q43 0 75.5 7t56 27t39.5 55.5t27 92.5zM236 730q-11 0 -8 12l6 27q3 11 12 11h231q11 0 8 -12l-6 -27q-3 -11 -12 -11h-231z" />
<glyph unicode="&#x16b;" horiz-adv-x="476" d="M36 0zM384 168q-11 -53 -25.5 -88t-40.5 -55q-23 -19 -54.5 -26.5t-84.5 -7.5q-74 0 -108.5 28t-34.5 85q0 10 1.5 25.5t6.5 37.5l60 316q1 7 9 7h28q7 0 6 -7l-60 -311q-8 -38 -8 -65q0 -38 24 -57.5t82 -19.5q39 0 63 6t42 21q20 17 32 46t21 74l59 306q1 7 9 7h28 q7 0 6 -7zM177 634q-11 0 -8 12l6 27q3 11 12 11h231q11 0 8 -12l-6 -27q-3 -11 -12 -11h-231z" />
<glyph unicode="&#x16c;" horiz-adv-x="557" d="M38 0zM504 638q1 9 11 9h27q10 0 9 -9l-83 -430q-12 -62 -30 -104t-46.5 -67t-70 -35.5t-99.5 -10.5q-40 0 -74 7.5t-58.5 24.5t-38 45t-13.5 69q0 30 6 63.5t12 63.5l72 374q1 9 11 9h27q10 0 9 -9l-83 -424q-5 -24 -6.5 -43t-1.5 -32q0 -32 11.5 -52.5t31 -32.5t45 -17 t53.5 -5q43 0 75.5 7t56 27t39.5 55.5t27 92.5zM346 694q-53 0 -86 27t-42 83q-1 10 8 13l24 5q11 2 13 -8q10 -42 30 -59.5t55 -17.5q37 0 63.5 17.5t49.5 62.5q5 10 15 7l22 -8q6 -2 6.5 -5.5t-1.5 -8.5q-26 -56 -66 -82t-91 -26z" />
<glyph unicode="&#x16d;" horiz-adv-x="476" d="M36 0zM384 168q-11 -53 -25.5 -88t-40.5 -55q-23 -19 -54.5 -26.5t-84.5 -7.5q-74 0 -108.5 28t-34.5 85q0 10 1.5 25.5t6.5 37.5l60 316q1 7 9 7h28q7 0 6 -7l-60 -311q-8 -38 -8 -65q0 -38 24 -57.5t82 -19.5q39 0 63 6t42 21q20 17 32 46t21 74l59 306q1 7 9 7h28 q7 0 6 -7zM287 585q-53 0 -86 27t-42 83q-1 10 8 13l24 5q11 2 13 -8q10 -42 30 -59.5t55 -17.5q37 0 63.5 17.5t49.5 62.5q5 10 15 7l22 -8q6 -2 6.5 -5.5t-1.5 -8.5q-26 -56 -66 -82t-91 -26z" />
<glyph unicode="&#x16e;" horiz-adv-x="557" d="M38 0zM504 638q1 9 11 9h27q10 0 9 -9l-83 -430q-12 -62 -30 -104t-46.5 -67t-70 -35.5t-99.5 -10.5q-40 0 -74 7.5t-58.5 24.5t-38 45t-13.5 69q0 30 6 63.5t12 63.5l72 374q1 9 11 9h27q10 0 9 -9l-83 -424q-5 -24 -6.5 -43t-1.5 -32q0 -32 11.5 -52.5t31 -32.5t45 -17 t53.5 -5q43 0 75.5 7t56 27t39.5 55.5t27 92.5zM261 748q0 46 28.5 73.5t72.5 27.5q39 0 59.5 -21t20.5 -53q0 -26 -8.5 -45t-22.5 -32.5t-31.5 -20t-36.5 -6.5q-38 0 -60 21t-22 56zM357 811q-24 0 -40.5 -15.5t-16.5 -41.5q0 -20 12 -32t34 -12q24 0 40.5 15.5t16.5 41.5 q0 20 -12.5 32t-33.5 12z" />
<glyph unicode="&#x16f;" horiz-adv-x="476" d="M36 0zM384 168q-11 -53 -25.5 -88t-40.5 -55q-23 -19 -54.5 -26.5t-84.5 -7.5q-74 0 -108.5 28t-34.5 85q0 10 1.5 25.5t6.5 37.5l60 316q1 7 9 7h28q7 0 6 -7l-60 -311q-8 -38 -8 -65q0 -38 24 -57.5t82 -19.5q39 0 63 6t42 21q20 17 32 46t21 74l59 306q1 7 9 7h28 q7 0 6 -7zM206 641q0 46 28.5 73.5t72.5 27.5q39 0 59.5 -21t20.5 -53q0 -26 -8.5 -45t-22.5 -32.5t-31.5 -20t-36.5 -6.5q-38 0 -60 21t-22 56zM302 704q-24 0 -40.5 -15.5t-16.5 -41.5q0 -20 12 -32t34 -12q24 0 40.5 15.5t16.5 41.5q0 20 -12.5 32t-33.5 12z" />
<glyph unicode="&#x170;" horiz-adv-x="557" d="M38 0zM504 638q1 9 11 9h27q10 0 9 -9l-83 -430q-12 -62 -30 -104t-46.5 -67t-70 -35.5t-99.5 -10.5q-40 0 -74 7.5t-58.5 24.5t-38 45t-13.5 69q0 30 6 63.5t12 63.5l72 374q1 9 11 9h27q10 0 9 -9l-83 -424q-5 -24 -6.5 -43t-1.5 -32q0 -32 11.5 -52.5t31 -32.5t45 -17 t53.5 -5q43 0 75.5 7t56 27t39.5 55.5t27 92.5zM370 837q12 8 21 -3l11 -16q11 -17 -5 -26l-172 -99q-10 -6 -16 3l-11 15q-2 4 -2 7t5 7zM568 837q12 8 21 -3l11 -16q11 -17 -5 -26l-172 -99q-10 -6 -16 3l-11 15q-2 4 -2 7t5 7z" />
<glyph unicode="&#x171;" horiz-adv-x="476" d="M36 0zM384 168q-11 -53 -25.5 -88t-40.5 -55q-23 -19 -54.5 -26.5t-84.5 -7.5q-74 0 -108.5 28t-34.5 85q0 10 1.5 25.5t6.5 37.5l60 316q1 7 9 7h28q7 0 6 -7l-60 -311q-8 -38 -8 -65q0 -38 24 -57.5t82 -19.5q39 0 63 6t42 21q20 17 32 46t21 74l59 306q1 7 9 7h28 q7 0 6 -7zM308 740q12 8 21 -3l11 -16q11 -17 -5 -26l-172 -99q-10 -6 -16 3l-11 15q-2 4 -2 7t5 7zM506 740q12 8 21 -3l11 -16q11 -17 -5 -26l-172 -99q-10 -6 -16 3l-11 15q-2 4 -2 7t5 7z" />
<glyph unicode="&#x172;" horiz-adv-x="557" d="M504 638q1 9 11 9h27q10 0 9 -9l-83 -430q-9 -47 -21.5 -82.5t-30.5 -60.5t-42 -41t-56 -24q-39 -20 -67.5 -51t-28.5 -69q0 -18 13 -26t31 -8q15 0 29.5 3t24.5 7q9 3 9 -5v-19q0 -5 -1.5 -8t-7.5 -6q-11 -5 -29.5 -8.5t-35.5 -3.5q-38 0 -61.5 15.5t-23.5 50.5t23 68 t60 52q-7 -1 -15 -1h-16q-40 0 -74 7.5t-58.5 24.5t-38 45t-13.5 69q0 30 6 63.5t12 63.5l72 374q1 9 11 9h27q10 0 9 -9l-83 -424q-5 -24 -6.5 -43t-1.5 -32q0 -32 11.5 -52.5t31 -32.5t45 -17t53.5 -5q43 0 75.5 7t56 27t39.5 55.5t27 92.5z" />
<glyph unicode="&#x173;" horiz-adv-x="476" d="M384 168q-11 -53 -25.5 -88t-40.5 -55q-11 -9 -24 -15t-21 -9q-43 -16 -70.5 -49.5t-27.5 -71.5q0 -18 13 -26t31 -8q15 0 29.5 3t24.5 7q9 3 9 -5v-19q0 -5 -1.5 -8t-7.5 -6q-11 -5 -29.5 -8.5t-35.5 -3.5q-38 0 -61.5 15.5t-23.5 50.5q0 33 23.5 66.5t58.5 53.5 q-8 -1 -14 -1h-12q-74 0 -108.5 28t-34.5 85q0 10 1.5 25.5t6.5 37.5l60 316q1 7 9 7h29q7 0 6 -7l-61 -311q-8 -38 -8 -65q0 -38 24 -57.5t82 -19.5q39 0 63 6t42 21q20 17 32 46t21 74l59 306q1 7 9 7h28q7 0 6 -7z" />
<glyph unicode="&#x174;" horiz-adv-x="776" d="M74 0zM817 637q-27 -70 -55.5 -139.5t-60.5 -142.5t-68 -151t-78 -165q-10 -20 -19 -29.5t-27 -9.5h-17q-14 0 -22 8t-10 30q-10 125 -15.5 254.5t-11.5 278.5h-9q-28 -66 -55.5 -131t-56.5 -130.5t-59.5 -134t-64.5 -141.5q-8 -19 -18 -26.5t-25 -7.5h-18q-16 0 -22 8 t-8 28q-10 130 -15.5 276.5t-7.5 324.5q0 7 3 8.5t11 1.5h20q8 0 11 -1.5t3 -8.5q0 -143 4 -297t12 -299h8q61 128 118 262t118 282q8 18 16.5 24t24.5 6h22q18 0 24.5 -6t7.5 -24q5 -138 11 -272t16 -272h8q75 161 139 308t118 288q4 10 17 10h21q14 0 10 -10zM583 723 q3 -5 3 -7q0 -5 -6 -9l-17 -13q-5 -3 -8 -3q-5 0 -9 6l-84 101h-6l-116 -101q-7 -5 -10 -5t-7 4l-17 17q-4 3 -4 7q0 5 5 9l124 111q10 10 21 10h19q7 0 10.5 -1.5t8.5 -8.5z" />
<glyph unicode="&#x175;" horiz-adv-x="638" d="M46 0zM649 477q-18 -48 -41.5 -105t-49 -116.5t-52 -117t-51.5 -107.5q-8 -17 -18 -24t-24 -7h-12q-14 0 -22.5 6.5t-10.5 26.5q-11 98 -17 194.5t-11 196.5h-5q-43 -100 -88 -197.5t-93 -195.5q-8 -17 -16.5 -24t-26.5 -7h-14q-15 0 -22 7t-9 25q-11 102 -15.5 211 t-4.5 236q0 11 13 11h17q8 0 11 -1.5t3 -9.5q0 -114 3.5 -225.5t13.5 -214.5h6q52 105 96.5 203t88.5 201q6 15 12.5 19t20.5 4h23q26 0 27 -30q2 -50 5 -98t6 -96.5t7.5 -98.5t9.5 -104h6q54 107 101.5 221.5t86.5 219.5q4 10 15 10h21q14 0 10 -13zM505 618q6 -9 -3 -16 l-17 -13q-10 -6 -17 3l-84 101h-6l-116 -101q-6 -5 -10 -4.5t-7 3.5l-17 17q-9 7 1 16l124 111q10 10 21 10h19q7 0 10.5 -1.5t8.5 -8.5z" />
<glyph unicode="&#x176;" horiz-adv-x="435" d="M71 0zM175 9q-1 -9 -11 -9h-27q-10 0 -9 9l43 218q-40 103 -64.5 202t-35.5 210q0 8 9 8h27q10 0 11 -8q8 -102 30.5 -194t50.5 -167h8q33 44 62.5 86.5t57 86.5t53.5 90.5t52 99.5q3 6 11 6h29q10 0 7 -8q-27 -53 -54.5 -103t-58.5 -100t-67.5 -102t-81.5 -110zM420 723 q3 -5 3 -7q0 -5 -6 -9l-17 -13q-5 -3 -8 -3q-5 0 -9 6l-84 101h-6l-116 -101q-7 -5 -10 -5t-7 4l-17 17q-4 3 -4 7q0 5 5 9l124 111q10 10 21 10h19q7 0 10.5 -1.5t8.5 -8.5z" />
<glyph unicode="&#x177;" horiz-adv-x="395" d="M44 0zM49 -146q22 37 44.5 77t44.5 81q-24 2 -37.5 14.5t-18.5 42.5q-6 42 -11 86.5t-9.5 95t-8 107.5t-7.5 124q0 8 8 8h29q8 0 8 -8q4 -133 12 -230.5t19 -170.5q2 -17 11 -23.5t26 -6.5q50 89 102.5 201.5t100.5 230.5q2 7 11 7h29q11 0 7 -9q-32 -76 -64 -146.5 t-65 -137.5q-40 -81 -86 -168t-106 -194q-3 -5 -5.5 -6t-7.5 1l-22 10q-9 5 -4 14zM382 618q6 -9 -3 -16l-17 -13q-10 -6 -17 3l-84 101h-6l-116 -101q-6 -5 -10 -4.5t-7 3.5l-17 17q-9 7 1 16l124 111q10 10 21 10h19q7 0 10.5 -1.5t8.5 -8.5z" />
<glyph unicode="&#x178;" horiz-adv-x="435" d="M71 0zM175 9q-1 -9 -11 -9h-27q-10 0 -9 9l43 218q-40 103 -64.5 202t-35.5 210q0 8 9 8h27q10 0 11 -8q8 -102 30.5 -194t50.5 -167h8q33 44 62.5 86.5t57 86.5t53.5 90.5t52 99.5q3 6 11 6h29q10 0 7 -8q-27 -53 -54.5 -103t-58.5 -100t-67.5 -102t-81.5 -110zM223 813 q30 0 30 -25q0 -10 -5 -32q-5 -20 -15 -27.5t-30 -7.5h-12q-31 0 -31 23q0 8 5 33q7 36 43 36h15zM384 813q30 0 30 -25q0 -10 -5 -32q-5 -20 -15 -27.5t-30 -7.5h-12q-31 0 -31 23q0 8 5 33q7 36 43 36h15z" />
<glyph unicode="&#x179;" horiz-adv-x="474" d="M0 0zM101 606q-10 0 -8 9l5 23q1 9 12 9h359q16 0 15 -14l-1 -11q-2 -14 -10 -28t-30 -41l-400 -512h329q10 0 9 -9l-5 -23q-2 -9 -12 -9h-366q-15 0 -13 11l1 9q2 13 7.5 23t22.5 32l413 531h-328zM412 819q11 4 16 -6l11 -24q5 -9 0.5 -14.5t-13.5 -8.5l-194 -70 q-8 -3 -11 3l-10 25q-3 8 5 11z" />
<glyph unicode="&#x17a;" horiz-adv-x="402" d="M0 0zM295 38q6 0 5 -7l-4 -25q-1 -6 -8 -6h-293q-11 0 -10 11l2 11q2 9 4.5 14t11.5 16l322 400h-251q-6 0 -5 7l4 25q1 6 8 6h296q12 0 11 -10l-1 -9q-1 -8 -4.5 -14t-14.5 -20l-326 -399h253zM383 715q11 4 16 -6l11 -24q5 -9 0.5 -14.5t-13.5 -8.5l-194 -70 q-8 -3 -11 3l-10 25q-3 8 5 11z" />
<glyph unicode="&#x17b;" horiz-adv-x="474" d="M0 0zM101 606q-10 0 -8 9l5 23q1 9 12 9h359q16 0 15 -14l-1 -11q-2 -14 -10 -28t-30 -41l-400 -512h329q10 0 9 -9l-5 -23q-2 -9 -12 -9h-366q-15 0 -13 11l1 9q2 13 7.5 23t22.5 32l413 531h-328zM305 719q-19 0 -33.5 12t-14.5 36q0 26 17.5 46t47.5 20q19 0 33.5 -12 t14.5 -36q0 -26 -17.5 -46t-47.5 -20z" />
<glyph unicode="&#x17c;" horiz-adv-x="402" d="M0 0zM295 38q6 0 5 -7l-4 -25q-1 -6 -8 -6h-293q-11 0 -10 11l2 11q2 9 4.5 14t11.5 16l322 400h-251q-6 0 -5 7l4 25q1 6 8 6h296q12 0 11 -10l-1 -9q-1 -8 -4.5 -14t-14.5 -20l-326 -399h253zM246 600q-19 0 -33.5 12t-14.5 36q0 26 17.5 46t47.5 20q19 0 33.5 -12 t14.5 -36q0 -26 -17.5 -46t-47.5 -20z" />
<glyph unicode="&#x17d;" horiz-adv-x="474" d="M0 0zM101 606q-10 0 -8 9l5 23q1 9 12 9h359q16 0 15 -14l-1 -11q-2 -14 -10 -28t-30 -41l-400 -512h329q10 0 9 -9l-5 -23q-2 -9 -12 -9h-366q-15 0 -13 11l1 9q2 13 7.5 23t22.5 32l413 531h-328zM179 825q-6 9 3 16l17 13q10 6 17 -3l84 -101h6l116 101q6 5 10 4.5 t7 -3.5l17 -17q9 -7 -1 -16l-126 -113q-5 -5 -9 -6.5t-10 -1.5h-19q-7 0 -10.5 1.5t-8.5 8.5z" />
<glyph unicode="&#x17e;" horiz-adv-x="402" d="M0 0zM295 38q6 0 5 -7l-4 -25q-1 -6 -8 -6h-293q-11 0 -10 11l2 11q2 9 4.5 14t11.5 16l322 400h-251q-6 0 -5 7l4 25q1 6 8 6h296q12 0 11 -10l-1 -9q-1 -8 -4.5 -14t-14.5 -20l-326 -399h253zM122 709q-6 9 3 16l17 13q10 6 17 -3l84 -101h6l116 101q6 5 10 4.5t7 -3.5 l17 -17q9 -7 -1 -16l-126 -113q-5 -5 -9 -6.5t-10 -1.5h-19q-7 0 -10.5 1.5t-8.5 8.5z" />
<glyph unicode="&#x17f;" horiz-adv-x="228" d="M92 108q-10 -53 -18 -92.5t-16 -71t-17 -58.5t-21 -55q-3 -8 -12 -8h-25q-10 0 -6 9q12 29 21 56.5t17 58t15.5 65.5t15.5 79l64 359h-60q-8 0 -6 8l3 16q3 8 10 9l62 9l6 28q10 45 21.5 76.5t30 51.5t47 29t72.5 9q22 0 41 -2.5t33 -7.5q9 -3 7 -11l-6 -21q-2 -7 -12 -5 q-12 3 -30 5.5t-33 2.5q-30 0 -50 -4.5t-34.5 -18t-24 -37.5t-16.5 -63z" />
<glyph unicode="&#x192;" horiz-adv-x="518" d="M164 357q-8 0 -6 8l3 16q1 8 10 9l66 9l32 118q15 55 29.5 86.5t34.5 50.5q35 32 103 32q22 0 41 -2.5t33 -7.5q9 -3 7 -11l-6 -21q-2 -7 -12 -5q-12 3 -30 5.5t-33 2.5q-28 0 -45 -5t-28 -15q-17 -14 -28.5 -42.5t-25.5 -83.5l-27 -104h125q8 0 7 -8l-5 -26q-1 -6 -9 -6 h-128l-94 -355q-12 -44 -21 -79.5t-25 -60.5t-43 -39t-73 -14q-26 0 -45.5 2.5t-36.5 7.5q-10 3 -7 12l5 20q4 8 13 5q29 -8 65 -8q24 0 42 4.5t31 18.5q16 17 26.5 47t24.5 84l93 355h-63z" />
<glyph unicode="&#x1cd;" horiz-adv-x="552" d="M0 0zM38 11q-2 -5 -5.5 -8t-11.5 -3h-23q-13 0 -7 11q80 177 155.5 330.5t150.5 289.5q5 10 11.5 13t16.5 3h27q8 0 14.5 -3.5t8.5 -14.5q10 -56 20.5 -128t19.5 -153t17 -166.5t14 -169.5q1 -12 -11 -12h-22q-13 0 -13 12q-3 50 -6.5 101t-8.5 102h-254zM327 607 q-48 -91 -91 -176.5t-86 -175.5h231q-10 102 -21 193t-22 159h-11zM223 825q-6 9 3 16l17 13q10 6 17 -3l84 -101h6l116 101q6 5 10 4.5t7 -3.5l17 -17q9 -7 -1 -16l-126 -113q-5 -5 -9 -6.5t-10 -1.5h-19q-7 0 -10.5 1.5t-8.5 8.5z" />
<glyph unicode="&#x1ce;" horiz-adv-x="456" d="M16 0zM332 239q-17 2 -35.5 3.5t-40.5 1.5h-56q-64 0 -93 -22q-11 -8 -18.5 -20t-12.5 -27q-6 -19 -11 -41.5t-5 -42.5q0 -32 20.5 -46.5t66.5 -14.5h9q68 0 109 33.5t52 94.5zM296 53q-22 -30 -57 -46t-89 -16h-11q-68 0 -95.5 24t-27.5 70q0 23 5.5 50t13.5 53 q7 21 19 38.5t29 28.5q41 28 129 28h48q18 0 40 -1.5t39 -4.5l7 36q11 53 11 79q0 38 -24.5 53t-80.5 15q-30 0 -64.5 -6t-63.5 -15q-11 -3 -12 5l-3 22q-1 9 7 11q33 10 70 16t75 6q27 0 52 -4.5t44.5 -15.5t31 -30t12.5 -47q0 -16 -4.5 -44.5t-9.5 -57.5l-55 -292 q-1 -8 -9 -8h-23q-10 0 -8 10l6 43h-2zM164 709q-6 9 3 16l17 13q10 6 17 -3l84 -101h6l116 101q6 5 10 4.5t7 -3.5l17 -17q9 -7 -1 -16l-126 -113q-5 -5 -9 -6.5t-10 -1.5h-19q-7 0 -10.5 1.5t-8.5 8.5z" />
<glyph unicode="&#x1fa;" horiz-adv-x="552" d="M0 0zM38 11q-2 -5 -5.5 -8t-11.5 -3h-23q-13 0 -7 11q80 177 155.5 330.5t150.5 289.5q5 10 11.5 13t16.5 3h27q8 0 14.5 -3.5t8.5 -14.5q10 -56 20.5 -128t19.5 -153t17 -166.5t14 -169.5q1 -12 -11 -12h-22q-13 0 -13 12q-3 50 -6.5 101t-8.5 102h-254zM327 607 q-48 -91 -91 -176.5t-86 -175.5h231q-10 102 -21 193t-22 159h-11zM500 989q11 4 16 -6l11 -24q5 -9 0.5 -14.5t-13.5 -8.5l-194 -70q-8 -3 -11 3l-10 25q-3 8 5 11zM267 748q0 46 28.5 73.5t72.5 27.5q39 0 59.5 -21t20.5 -53q0 -26 -8.5 -45t-22.5 -32.5t-31.5 -20 t-36.5 -6.5q-38 0 -60 21t-22 56zM363 811q-24 0 -40.5 -15.5t-16.5 -41.5q0 -20 12 -32t34 -12q24 0 40.5 15.5t16.5 41.5q0 20 -12.5 32t-33.5 12z" />
<glyph unicode="&#x1fb;" horiz-adv-x="456" d="M16 0zM332 239q-17 2 -35.5 3.5t-40.5 1.5h-56q-64 0 -93 -22q-11 -8 -18.5 -20t-12.5 -27q-6 -19 -11 -41.5t-5 -42.5q0 -32 20.5 -46.5t66.5 -14.5h9q68 0 109 33.5t52 94.5zM296 53q-22 -30 -57 -46t-89 -16h-11q-68 0 -95.5 24t-27.5 70q0 23 5.5 50t13.5 53 q7 21 19 38.5t29 28.5q41 28 129 28h48q18 0 40 -1.5t39 -4.5l7 36q11 53 11 79q0 38 -24.5 53t-80.5 15q-30 0 -64.5 -6t-63.5 -15q-11 -3 -12 5l-3 22q-1 9 7 11q33 10 70 16t75 6q27 0 52 -4.5t44.5 -15.5t31 -30t12.5 -47q0 -16 -4.5 -44.5t-9.5 -57.5l-55 -292 q-1 -8 -9 -8h-23q-10 0 -8 10l6 43h-2zM418 876q11 4 16 -6l11 -24q5 -9 0.5 -14.5t-13.5 -8.5l-194 -70q-8 -3 -11 3l-10 25q-3 8 5 11zM199 622q0 46 28.5 73.5t72.5 27.5q39 0 59.5 -21t20.5 -53q0 -26 -8.5 -45t-22.5 -32.5t-31.5 -20t-36.5 -6.5q-38 0 -60 21t-22 56z M295 685q-24 0 -40.5 -15.5t-16.5 -41.5q0 -20 12 -32t34 -12q24 0 40.5 15.5t16.5 41.5q0 20 -12.5 32t-33.5 12z" />
<glyph unicode="&#x1fc;" horiz-adv-x="782" d="M0 0zM447 0q-49 0 -73.5 18.5t-24.5 59.5q0 14 2 32t6 41l11 64h-205l-132 -204q-4 -5 -7.5 -8t-11.5 -3h-27q-11 0 -4 11q118 182 223 336t197 279q11 14 19.5 17.5t23.5 3.5h334q11 0 9 -10l-4 -21q-2 -6 -4 -7.5t-8 -1.5h-282l-48 -252h256q11 0 9 -10l-5 -22 q-2 -5 -4 -7t-8 -2h-257l-31 -172q-6 -36 -6 -59q0 -42 59 -42h222q10 0 9 -10l-4 -21q-2 -6 -4 -8t-8 -2h-222zM436 608q-66 -89 -126 -176t-120 -177h185l69 353h-8zM722 819q11 4 16 -6l11 -24q5 -9 0.5 -14.5t-13.5 -8.5l-194 -70q-8 -3 -11 3l-10 25q-3 8 5 11z" />
<glyph unicode="&#x1fd;" horiz-adv-x="724" d="M16 0zM662 231q-2 -7 -6 -11.5t-15 -4.5h-270q-9 -51 -9 -88q0 -27 6 -45.5t20 -30t37 -16.5t57 -5q30 0 67 7t63 17q10 4 11 -5l4 -19q1 -8 -7 -12q-34 -13 -72 -20t-72 -7q-74 0 -110 23t-41 63q-11 -27 -28.5 -44t-40 -26t-49.5 -12.5t-57 -3.5h-13q-68 0 -94.5 23 t-26.5 69q0 26 5.5 57t14.5 57q8 23 21 39.5t32.5 27t46.5 15t64 4.5h60q18 0 40 -1.5t39 -4.5l5 27q5 26 9 48.5t4 39.5q0 38 -25 53t-81 15q-32 0 -65 -6t-62 -15q-11 -3 -12 5l-3 22q-1 9 7 11q33 10 71 16t76 6q22 0 42 -2.5t37.5 -9t30.5 -18t20 -30.5q23 32 60 46 t89 14q74 0 107.5 -30t33.5 -90q0 -14 -2 -32t-5 -37.5t-6.5 -40t-7.5 -38.5zM332 239q-17 2 -36 3.5t-41 1.5h-64q-51 0 -77 -14t-37 -46q-8 -22 -12.5 -47t-4.5 -48q0 -32 19.5 -45.5t65.5 -13.5h11q38 0 65.5 7t46.5 22t31 39.5t18 59.5zM609 253q12 0 15 14 q7 32 11 59.5t4 47.5q0 48 -26.5 67t-76.5 19q-32 0 -56 -6.5t-42 -23.5t-30 -46.5t-20 -74.5l-10 -56h231zM555 715q11 4 16 -6l11 -24q5 -9 0.5 -14.5t-13.5 -8.5l-194 -70q-8 -3 -11 3l-10 25q-3 8 5 11z" />
<glyph unicode="&#x1fe;" horiz-adv-x="566" d="M30 0zM229 -9q-32 0 -58.5 4t-47.5 13l-53 -89q-4 -8 -13 -4l-21 12q-4 2 -5 4.5t2 7.5l54 92q-23 20 -34.5 53t-11.5 81q0 46 10.5 109t27.5 143q13 62 34 107t52.5 74.5t74.5 43.5t101 14q60 0 105 -20l55 93q4 8 13 4l21 -12q4 -2 5 -4.5t-2 -7.5l-58 -97 q44 -42 44 -130q0 -49 -11 -113t-30 -139q-16 -65 -38 -110t-52 -74t-70.5 -42t-93.5 -13zM87 170q0 -32 5.5 -56t19.5 -41l310 522q-34 20 -85 20q-44 0 -77.5 -11t-59 -36t-44 -65t-31.5 -97q-17 -71 -27.5 -133t-10.5 -103zM230 32q42 0 74 10t56 34t42.5 64t34.5 100 q9 33 16 66.5t12 65t8 57.5t3 44q0 58 -23 93l-307 -519q31 -15 84 -15zM446 819q11 4 16 -6l11 -24q5 -9 0.5 -14.5t-13.5 -8.5l-194 -70q-8 -3 -11 3l-10 25q-3 8 5 11z" />
<glyph unicode="&#x1ff;" d="M11 0zM401 715q11 4 16 -6l11 -24q5 -9 0.5 -14.5t-13.5 -8.5l-194 -70q-8 -3 -11 3l-10 25q-3 8 5 11zM177 -9q-52 0 -87 16l-43 -66q-4 -7 -11 -4l-18 10q-7 4 -2 10l46 70q-31 31 -31 95q0 34 6.5 75.5t19.5 101.5q12 56 30 94.5t43.5 62t60.5 33.5t81 10 q27 0 48.5 -5t38.5 -13l49 74q4 7 11 4l18 -10q7 -4 2 -10l-52 -79q30 -32 30 -85q0 -33 -6 -80.5t-20 -103.5q-13 -54 -30 -92t-42 -62t-59.5 -35t-82.5 -11zM76 127q0 -36 13 -59l247 377q-26 15 -72 15q-38 0 -64.5 -9.5t-45.5 -30.5t-32 -55.5t-24 -84.5 q-11 -48 -16.5 -88.5t-5.5 -64.5zM184 30q37 0 63.5 9.5t45.5 30.5t32.5 55.5t24.5 84.5q11 48 16.5 88.5t5.5 64.5q0 35 -12 56l-246 -375q26 -14 70 -14z" />
<glyph unicode="&#x218;" horiz-adv-x="479" d="M0 0zM168 -9q-45 0 -87.5 9t-74.5 24q-9 4 -5 14l8 20q4 11 15 5q32 -15 69.5 -23t71.5 -8q69 0 113 26t61 86q5 19 8.5 37.5t3.5 32.5q0 36 -19 56t-71 34l-78 20q-53 13 -76 39t-23 74q0 20 5 46.5t13 52.5q16 55 61.5 87.5t135.5 32.5q75 0 141 -23q7 -2 8 -5.5 t-1 -8.5l-6 -19q-3 -8 -16 -4q-66 19 -130 19q-70 0 -103 -24.5t-47 -74.5q-5 -18 -8.5 -37t-3.5 -38q0 -27 13.5 -46t55.5 -30l81 -21q67 -17 92 -45t25 -77q0 -16 -4 -38.5t-11 -45.5q-22 -75 -76 -111t-141 -36zM177 -64q29 0 29 -27q0 -8 -2 -18.5t-4 -16.5 q-9 -34 -27.5 -63.5t-53.5 -63.5q-6 -6 -12 -1l-12 10q-5 5 1 11q13 13 25.5 28.5t20.5 29.5q9 16 -3 22l-8 4q-11 5 -11 20q0 3 2 13t5 23q6 29 37 29h13z" />
<glyph unicode="&#x219;" horiz-adv-x="392" d="M0 0zM3 51q4 9 14 5q26 -11 57.5 -18.5t63.5 -7.5q49 0 78 14t45 46q8 15 12 34.5t4 36.5q0 23 -17.5 38t-58.5 27l-55 16q-53 15 -71.5 38t-18.5 55q0 16 2.5 31.5t8.5 35.5q16 51 57 74t103 23q30 0 61 -5.5t57 -15.5q9 -4 6 -13l-7 -19q-3 -9 -13 -5q-51 18 -109 18 q-51 0 -76.5 -16t-36.5 -47q-10 -29 -10 -56q0 -20 13 -35t54 -27l54 -16q30 -9 49 -18.5t30.5 -21t15.5 -26t4 -33.5q0 -22 -5.5 -44.5t-13.5 -40.5q-20 -50 -64 -68.5t-99 -18.5q-74 0 -136 28q-9 4 -5 14l7 18v0zM147 -64q29 0 29 -27q0 -8 -2 -18.5t-4 -16.5 q-9 -34 -27.5 -63.5t-53.5 -63.5q-6 -6 -12 -1l-12 10q-5 5 1 11q13 13 25.5 28.5t20.5 29.5q9 16 -3 22l-8 4q-11 5 -11 20q0 3 2 13t5 23q6 29 37 29h13z" />
<glyph unicode="&#x21a;" horiz-adv-x="458" d="M67 0zM495 647q10 0 9 -9l-5 -24q-1 -8 -11 -8h-183l-116 -597q-1 -9 -11 -9h-27q-11 0 -9 9l116 597h-179q-12 0 -9 10l5 22q1 9 13 9h407zM158 -64q29 0 29 -27q0 -8 -2 -18.5t-4 -16.5q-9 -34 -27.5 -63.5t-53.5 -63.5q-6 -6 -12 -1l-12 10q-5 5 1 11q13 13 25.5 28.5 t20.5 29.5q9 16 -3 22l-8 4q-11 5 -11 20q0 3 2 13t5 23q6 29 37 29h13z" />
<glyph unicode="&#x21b;" horiz-adv-x="283" d="M32 0zM159 490h119q7 0 6 -7l-5 -27q-2 -6 -8 -6h-120l-47 -255q-7 -37 -11.5 -63.5t-4.5 -44.5q0 -26 16 -37.5t54 -11.5h55q7 0 6 -7l-5 -24q-1 -7 -9 -7h-55q-51 0 -78 18.5t-27 63.5q0 27 6 59t11 60l46 249h-62q-7 0 -6 8l3 16q1 8 10 9l63 9l23 116q1 7 9 7h28 q7 0 6 -7zM119 -64q29 0 29 -27q0 -8 -2 -18.5t-4 -16.5q-9 -34 -27.5 -63.5t-53.5 -63.5q-6 -6 -12 -1l-12 10q-5 5 1 11q13 13 25.5 28.5t20.5 29.5q9 16 -3 22l-8 4q-11 5 -11 20q0 3 2 13t5 23q6 29 37 29h13z" />
<glyph unicode="&#x2c6;" horiz-adv-x="378" d="M393 618q6 -9 -3 -16l-17 -13q-10 -6 -17 3l-84 101h-6l-116 -101q-6 -5 -10 -4.5t-7 3.5l-17 17q-9 7 1 16l124 111q10 10 21 10h19q7 0 10.5 -1.5t8.5 -8.5z" />
<glyph unicode="&#x2c7;" horiz-adv-x="378" d="M130 709q-6 9 3 16l17 13q10 6 17 -3l84 -101h6l116 101q6 5 10 4.5t7 -3.5l17 -17q9 -7 -1 -16l-126 -113q-5 -5 -9 -6.5t-10 -1.5h-19q-7 0 -10.5 1.5t-8.5 8.5z" />
<glyph unicode="&#x2d8;" horiz-adv-x="378" d="M233 585q-53 0 -86 27t-42 83q-1 10 8 13l24 5q11 2 13 -8q10 -42 30 -59.5t55 -17.5q37 0 63.5 17.5t49.5 62.5q5 10 15 7l22 -8q6 -2 6.5 -5.5t-1.5 -8.5q-26 -56 -66 -82t-91 -26z" />
<glyph unicode="&#x2d9;" horiz-adv-x="138" d="M119 600q-19 0 -33.5 12t-14.5 36q0 26 17.5 46t47.5 20q19 0 33.5 -12t14.5 -36q0 -26 -17.5 -46t-47.5 -20z" />
<glyph unicode="&#x2da;" horiz-adv-x="224" d="M83 641q0 46 28.5 73.5t72.5 27.5q39 0 59.5 -21t20.5 -53q0 -26 -8.5 -45t-22.5 -32.5t-31.5 -20t-36.5 -6.5q-38 0 -60 21t-22 56zM179 704q-24 0 -40.5 -15.5t-16.5 -41.5q0 -20 12 -32t34 -12q24 0 40.5 15.5t16.5 41.5q0 20 -12.5 32t-33.5 12z" />
<glyph unicode="&#x2db;" horiz-adv-x="229" d="M103 6q4 0 4.5 -2.5t-2.5 -4.5q-17 -10 -33.5 -23t-30 -28t-21.5 -32t-8 -36q0 -18 13 -26t31 -8q15 0 29.5 3t24.5 7q9 3 9 -5v-19q0 -5 -1.5 -8t-7.5 -6q-11 -5 -29.5 -8.5t-35.5 -3.5q-38 0 -61.5 15.5t-23.5 50.5q0 40 27.5 75t75.5 56q5 2 8.5 2.5t6.5 0.5h25z" />
<glyph unicode="&#x2dc;" horiz-adv-x="422" d="M114 624q-7 5 -2 12q25 40 53 58t54 18q31 0 59 -24l21 -18q20 -17 37 -17t35 15t35 38q6 7 14 1l16 -13q8 -6 1 -15q-25 -35 -50 -55t-55 -20q-32 0 -60 24l-21 18q-11 9 -19 14.5t-19 5.5q-17 0 -32 -12t-34 -39q-7 -9 -15 -4z" />
<glyph unicode="&#x2dd;" horiz-adv-x="454" d="M287 740q12 8 21 -3l11 -16q11 -17 -5 -26l-172 -99q-10 -6 -16 3l-11 15q-2 4 -2 7t5 7zM485 740q12 8 21 -3l11 -16q11 -17 -5 -26l-172 -99q-10 -6 -16 3l-11 15q-2 4 -2 7t5 7z" />
<glyph unicode="&#x326;" horiz-adv-x="187" d="M31 -64q29 0 29 -27q0 -8 -2 -18.5t-4 -16.5q-9 -34 -27.5 -63.5t-53.5 -63.5q-6 -6 -12 -1l-12 10q-5 5 1 11q13 13 25.5 28.5t20.5 29.5q9 16 -3 22l-8 4q-11 5 -11 20q0 3 2 13t5 23q6 29 37 29h13z" />
<glyph unicode="&#x394;" horiz-adv-x="616" d="M449 41q-8 67 -18.5 141.5t-21.5 147.5t-22 139.5t-20 117.5h-8q-29 -49 -67 -116.5t-78 -141.5t-79 -149t-70 -139h384zM21 0q-12 0 -15 5.5t-1 12.5l3 14q2 10 10.5 27.5t18.5 36.5q66 127 139 259.5t158 280.5q5 11 20 11h34q15 0 18 -13q12 -69 24 -139.5t23 -139 t21 -133t19 -120.5q5 -35 6 -52t-2 -28l-2 -8q-4 -14 -26 -14h-448z" />
<glyph unicode="&#x3a9;" horiz-adv-x="649" d="M323 0q-17 0 -14 11l2 13q2 5 4.5 7.5t8.5 6.5q37 23 65.5 47t50 52.5t37.5 64t29 81.5q12 43 18.5 90t6.5 85q0 86 -38 121.5t-117 35.5q-48 0 -84 -12t-63 -40.5t-46 -75.5t-33 -117q-9 -45 -14.5 -85t-5.5 -64q0 -31 5 -54.5t16 -44.5t28.5 -41t41.5 -43 q6 -5 7.5 -8.5t0.5 -8.5l-2 -11q-1 -10 -17 -10h-179q-8 0 -7 8l5 26q1 7 9 7h122v3q-42 38 -60.5 78.5t-18.5 82.5q0 35 7 79.5t15 94.5q13 81 38 134.5t60 85t81 44.5t103 13q45 0 81 -10t61.5 -32.5t39 -59.5t13.5 -90q0 -30 -6 -81t-20 -105q-12 -43 -25.5 -76.5 t-32 -60.5t-44 -50.5t-59.5 -46.5v-3h131q8 0 7 -8l-5 -26q-1 -7 -9 -7h-194z" />
<glyph unicode="&#x3bc;" horiz-adv-x="560" d="M49 -170q-1 -8 -9 -8h-27q-8 0 -7 8l127 652q1 8 10 8h27q7 0 6 -8l-66 -342q-2 -10 -3 -20t-1 -19q0 -40 26.5 -56t74.5 -16q29 0 56 7.5t49.5 25t39 45t24.5 68.5l60 307q1 8 10 8h27q7 0 6 -8l-78 -403q-3 -14 -3 -25q0 -14 7.5 -19.5t20.5 -5.5q9 0 21 2.5t18 4.5 q8 3 8 -5l1 -16q1 -7 -6 -11q-24 -13 -58 -13q-26 0 -40.5 12.5t-14.5 35.5q0 5 0.5 10t1.5 10h-3q-23 -30 -59 -49t-93 -19q-48 0 -74.5 14t-37.5 38z" />
<glyph unicode="&#x3c0;" horiz-adv-x="555" d="M75 453q-7 0 -6 7l5 24q1 6 8 6h459q7 0 6 -7l-5 -24q-2 -6 -8 -6h-87l-69 -355q-2 -12 -3.5 -21.5t-1.5 -17.5q0 -20 9 -27t26 -7q10 0 23 2t23 5q8 3 9 -4l3 -16q1 -5 -6 -9q-14 -5 -30 -8.5t-33 -3.5q-38 0 -52 17t-14 41q0 23 7 61l66 343h-211l-86 -443 q-1 -10 -11 -10h-25q-8 0 -7 10l86 443h-75z" />
<glyph unicode="&#x1e80;" horiz-adv-x="776" d="M74 0zM817 637q-27 -70 -55.5 -139.5t-60.5 -142.5t-68 -151t-78 -165q-10 -20 -19 -29.5t-27 -9.5h-17q-14 0 -22 8t-10 30q-10 125 -15.5 254.5t-11.5 278.5h-9q-28 -66 -55.5 -131t-56.5 -130.5t-59.5 -134t-64.5 -141.5q-8 -19 -18 -26.5t-25 -7.5h-18q-16 0 -22 8 t-8 28q-10 130 -15.5 276.5t-7.5 324.5q0 7 3 8.5t11 1.5h20q8 0 11 -1.5t3 -8.5q0 -143 4 -297t12 -299h8q61 128 118 262t118 282q8 18 16.5 24t24.5 6h22q18 0 24.5 -6t7.5 -24q5 -138 11 -272t16 -272h8q75 161 139 308t118 288q4 10 17 10h21q14 0 10 -10zM512 735 q8 -3 5 -11l-10 -25q-3 -6 -11 -3l-194 70q-9 3 -13.5 8.5t0.5 14.5l11 24q5 10 16 6z" />
<glyph unicode="&#x1e81;" horiz-adv-x="638" d="M46 0zM649 477q-18 -48 -41.5 -105t-49 -116.5t-52 -117t-51.5 -107.5q-8 -17 -18 -24t-24 -7h-12q-14 0 -22.5 6.5t-10.5 26.5q-11 98 -17 194.5t-11 196.5h-5q-43 -100 -88 -197.5t-93 -195.5q-8 -17 -16.5 -24t-26.5 -7h-14q-15 0 -22 7t-9 25q-11 102 -15.5 211 t-4.5 236q0 11 13 11h17q8 0 11 -1.5t3 -9.5q0 -114 3.5 -225.5t13.5 -214.5h6q52 105 96.5 203t88.5 201q6 15 12.5 19t20.5 4h23q26 0 27 -30q2 -50 5 -98t6 -96.5t7.5 -98.5t9.5 -104h6q54 107 101.5 221.5t86.5 219.5q4 10 15 10h21q14 0 10 -13zM428 631q8 -3 5 -11 l-10 -25q-3 -6 -11 -3l-194 70q-9 3 -13.5 8.5t0.5 14.5l11 24q5 10 16 6z" />
<glyph unicode="&#x1e82;" horiz-adv-x="776" d="M74 0zM817 637q-27 -70 -55.5 -139.5t-60.5 -142.5t-68 -151t-78 -165q-10 -20 -19 -29.5t-27 -9.5h-17q-14 0 -22 8t-10 30q-10 125 -15.5 254.5t-11.5 278.5h-9q-28 -66 -55.5 -131t-56.5 -130.5t-59.5 -134t-64.5 -141.5q-8 -19 -18 -26.5t-25 -7.5h-18q-16 0 -22 8 t-8 28q-10 130 -15.5 276.5t-7.5 324.5q0 7 3 8.5t11 1.5h20q8 0 11 -1.5t3 -8.5q0 -143 4 -297t12 -299h8q61 128 118 262t118 282q8 18 16.5 24t24.5 6h22q18 0 24.5 -6t7.5 -24q5 -138 11 -272t16 -272h8q75 161 139 308t118 288q4 10 17 10h21q14 0 10 -10zM579 819 q11 4 16 -6l11 -24q5 -9 0.5 -14.5t-13.5 -8.5l-194 -70q-8 -3 -11 3l-10 25q-3 8 5 11z" />
<glyph unicode="&#x1e83;" horiz-adv-x="638" d="M46 0zM649 477q-18 -48 -41.5 -105t-49 -116.5t-52 -117t-51.5 -107.5q-8 -17 -18 -24t-24 -7h-12q-14 0 -22.5 6.5t-10.5 26.5q-11 98 -17 194.5t-11 196.5h-5q-43 -100 -88 -197.5t-93 -195.5q-8 -17 -16.5 -24t-26.5 -7h-14q-15 0 -22 7t-9 25q-11 102 -15.5 211 t-4.5 236q0 11 13 11h17q8 0 11 -1.5t3 -9.5q0 -114 3.5 -225.5t13.5 -214.5h6q52 105 96.5 203t88.5 201q6 15 12.5 19t20.5 4h23q26 0 27 -30q2 -50 5 -98t6 -96.5t7.5 -98.5t9.5 -104h6q54 107 101.5 221.5t86.5 219.5q4 10 15 10h21q14 0 10 -13zM500 715q11 4 16 -6 l11 -24q5 -9 0.5 -14.5t-13.5 -8.5l-194 -70q-8 -3 -11 3l-10 25q-3 8 5 11z" />
<glyph unicode="&#x1e84;" horiz-adv-x="776" d="M74 0zM817 637q-27 -70 -55.5 -139.5t-60.5 -142.5t-68 -151t-78 -165q-10 -20 -19 -29.5t-27 -9.5h-17q-14 0 -22 8t-10 30q-10 125 -15.5 254.5t-11.5 278.5h-9q-28 -66 -55.5 -131t-56.5 -130.5t-59.5 -134t-64.5 -141.5q-8 -19 -18 -26.5t-25 -7.5h-18q-16 0 -22 8 t-8 28q-10 130 -15.5 276.5t-7.5 324.5q0 7 3 8.5t11 1.5h20q8 0 11 -1.5t3 -8.5q0 -143 4 -297t12 -299h8q61 128 118 262t118 282q8 18 16.5 24t24.5 6h22q18 0 24.5 -6t7.5 -24q5 -138 11 -272t16 -272h8q75 161 139 308t118 288q4 10 17 10h21q14 0 10 -10zM398 813 q30 0 30 -25q0 -10 -5 -32q-5 -20 -15 -27.5t-30 -7.5h-12q-31 0 -31 23q0 8 5 33q7 36 43 36h15zM559 813q30 0 30 -25q0 -10 -5 -32q-5 -20 -15 -27.5t-30 -7.5h-12q-31 0 -31 23q0 8 5 33q7 36 43 36h15z" />
<glyph unicode="&#x1e85;" horiz-adv-x="638" d="M46 0zM649 477q-18 -48 -41.5 -105t-49 -116.5t-52 -117t-51.5 -107.5q-8 -17 -18 -24t-24 -7h-12q-14 0 -22.5 6.5t-10.5 26.5q-11 98 -17 194.5t-11 196.5h-5q-43 -100 -88 -197.5t-93 -195.5q-8 -17 -16.5 -24t-26.5 -7h-14q-15 0 -22 7t-9 25q-11 102 -15.5 211 t-4.5 236q0 11 13 11h17q8 0 11 -1.5t3 -9.5q0 -114 3.5 -225.5t13.5 -214.5h6q52 105 96.5 203t88.5 201q6 15 12.5 19t20.5 4h23q26 0 27 -30q2 -50 5 -98t6 -96.5t7.5 -98.5t9.5 -104h6q54 107 101.5 221.5t86.5 219.5q4 10 15 10h21q14 0 10 -13zM307 704q30 0 30 -25 q0 -10 -5 -32q-5 -20 -15 -27.5t-30 -7.5h-12q-31 0 -31 23q0 8 5 33q7 36 43 36h15zM468 704q30 0 30 -25q0 -10 -5 -32q-5 -20 -15 -27.5t-30 -7.5h-12q-31 0 -31 23q0 8 5 33q7 36 43 36h15z" />
<glyph unicode="&#x1ef2;" horiz-adv-x="435" d="M71 0zM175 9q-1 -9 -11 -9h-27q-10 0 -9 9l43 218q-40 103 -64.5 202t-35.5 210q0 8 9 8h27q10 0 11 -8q8 -102 30.5 -194t50.5 -167h8q33 44 62.5 86.5t57 86.5t53.5 90.5t52 99.5q3 6 11 6h29q10 0 7 -8q-27 -53 -54.5 -103t-58.5 -100t-67.5 -102t-81.5 -110zM339 735 q8 -3 5 -11l-10 -25q-3 -6 -11 -3l-194 70q-9 3 -13.5 8.5t0.5 14.5l11 24q5 10 16 6z" />
<glyph unicode="&#x1ef3;" horiz-adv-x="395" d="M44 0zM49 -146q22 37 44.5 77t44.5 81q-24 2 -37.5 14.5t-18.5 42.5q-6 42 -11 86.5t-9.5 95t-8 107.5t-7.5 124q0 8 8 8h29q8 0 8 -8q4 -133 12 -230.5t19 -170.5q2 -17 11 -23.5t26 -6.5q50 89 102.5 201.5t100.5 230.5q2 7 11 7h29q11 0 7 -9q-32 -76 -64 -146.5 t-65 -137.5q-40 -81 -86 -168t-106 -194q-3 -5 -5.5 -6t-7.5 1l-22 10q-9 5 -4 14zM310 631q8 -3 5 -11l-10 -25q-3 -6 -11 -3l-194 70q-9 3 -13.5 8.5t0.5 14.5l11 24q5 10 16 6z" />
<glyph unicode="&#x2013;" horiz-adv-x="500" d="M-7 243q-7 0 -6 7l6 26q1 7 8 7h478q7 0 6 -7l-6 -26q-1 -7 -8 -7h-478z" />
<glyph unicode="&#x2014;" horiz-adv-x="1000" d="M-7 243q-7 0 -6 7l6 26q1 7 8 7h978q7 0 6 -7l-6 -26q-1 -7 -8 -7h-978z" />
<glyph unicode="&#x2018;" horiz-adv-x="180" d="M78 468zM111.003 468.005q-32.9971 0 -32.9971 25.999q0 5 0.999023 11.999q1 7 5 23.999q9 37.9971 28.498 75.4951q19.499 37.4971 52.4971 75.4951q6 7 11.999 3l13.999 -9.99902q7 -5 0 -12q-16.998 -19.998 -29.498 -39.4971q-12.499 -19.499 -20.498 -36.498 q-6 -12.999 3.99902 -17.999l9 -4q14.999 -5.99902 14.999 -18.998q0 -6 -1 -14.499q-1 -8.5 -6 -29.499q-6.99902 -32.998 -37.9971 -32.998h-13z" />
<glyph unicode="&#x2019;" horiz-adv-x="180" d="M62 461zM149 681q33 0 33 -26q0 -5 -1 -12t-5 -24q-9 -38 -28.5 -75.5t-52.5 -75.5q-6 -7 -12 -3l-14 10q-7 5 0 12q17 20 29.5 39.5t20.5 36.5q6 13 -4 18l-9 4q-15 6 -15 19q0 6 1 14.5t6 29.5q7 33 38 33h13z" />
<glyph unicode="&#x201a;" horiz-adv-x="180" d="M0 0zM47 87q33 0 33 -26q0 -5 -1 -12t-5 -24q-9 -38 -28.5 -75.5t-52.5 -75.5q-6 -7 -12 -3l-14 10q-7 5 0 12q17 20 29.5 39.5t20.5 36.5q6 13 -4 18l-9 4q-15 6 -15 19q0 6 1 14.5t6 29.5q7 33 38 33h13z" />
<glyph unicode="&#x201c;" horiz-adv-x="315" d="M78 468zM246.003 468.005q-32.9971 0 -32.9971 25.999q0 5 0.999023 11.999q1 7 5 23.999q9 37.9971 28.498 75.4951q19.499 37.4971 52.4971 75.4951q6 7 11.999 3l13.999 -9.99902q7 -5 0 -12q-16.998 -19.998 -29.498 -39.4971q-12.499 -19.499 -20.498 -36.498 q-6 -12.999 3.99902 -17.999l9 -4q14.999 -5.99902 14.999 -18.998q0 -6 -1 -14.499q-1 -8.5 -6 -29.499q-6.99902 -32.998 -37.9971 -32.998h-13zM111.003 468.005q-32.9971 0 -32.9971 25.999q0 5 0.999023 11.999q1 7 5 23.999q9 37.9971 28.498 75.4951 q19.499 37.4971 52.4971 75.4951q6 7 11.999 3l13.999 -9.99902q7 -5 0 -12q-16.998 -19.998 -29.498 -39.4971q-12.499 -19.499 -20.498 -36.498q-6 -12.999 3.99902 -17.999l9 -4q14.999 -5.99902 14.999 -18.998q0 -6 -1 -14.499q-1 -8.5 -6 -29.499 q-6.99902 -32.998 -37.9971 -32.998h-13z" />
<glyph unicode="&#x201d;" horiz-adv-x="315" d="M62 459zM284 679q33 0 33 -26q0 -5 -1 -12t-5 -24q-9 -38 -28.5 -75.5t-52.5 -75.5q-6 -7 -12 -3l-14 10q-7 5 0 12q17 20 29.5 39.5t20.5 36.5q6 13 -4 18l-9 4q-15 6 -15 19q0 6 1 14.5t6 29.5q7 33 38 33h13zM149 679q33 0 33 -26q0 -5 -1 -12t-5 -24 q-9 -38 -28.5 -75.5t-52.5 -75.5q-6 -7 -12 -3l-14 10q-7 5 0 12q17 20 29.5 39.5t20.5 36.5q6 13 -4 18l-9 4q-15 6 -15 19q0 6 1 14.5t6 29.5q7 33 38 33h13z" />
<glyph unicode="&#x201e;" horiz-adv-x="315" d="M0 0zM181 87q33 0 33 -26q0 -5 -1 -12t-5 -24q-9 -38 -28.5 -75.5t-52.5 -75.5q-6 -7 -12 -3l-14 10q-7 5 0 12q17 20 29.5 39.5t20.5 36.5q6 13 -4 18l-9 4q-15 6 -15 19q0 6 1 14.5t6 29.5q7 33 38 33h13zM47 87q33 0 33 -26q0 -5 -1 -12t-5 -24q-9 -38 -28.5 -75.5 t-52.5 -75.5q-6 -7 -12 -3l-14 10q-7 5 0 12q17 20 29.5 39.5t20.5 36.5q6 13 -4 18l-9 4q-15 6 -15 19q0 6 1 14.5t6 29.5q7 33 38 33h13z" />
<glyph unicode="&#x2020;" horiz-adv-x="356" d="M219 433l-87 -423q-1 -10 -10 -10h-20q-9 0 -8 10l77 423l-119 -2q-12 0 -9 10l6 26q1 9 10 10l120 -2l36 194q1 6 3.5 7.5t7.5 1.5h31q11 0 10 -9l-40 -194l119 2q12 0 9 -10l-6 -26q-2 -10 -10 -10z" />
<glyph unicode="&#x2021;" horiz-adv-x="356" d="M215 669q1 6 3.5 7.5t7.5 1.5h31q11 0 10 -9l-40 -194l119 2q12 0 9 -10l-6 -26q-2 -10 -10 -10l-120 2l-24 -114l105 2q12 0 9 -10l-6 -26q-2 -10 -10 -10l-106 3l-55 -268q-1 -10 -10 -10h-20q-9 0 -8 10l48 268l-105 -3q-12 0 -9 10l6 26q1 9 10 10l106 -2l21 114 l-119 -2q-12 0 -9 10l6 26q1 9 10 10l120 -2z" />
<glyph unicode="&#x2022;" horiz-adv-x="341" d="M134 153q-41 0 -64.5 23.5t-23.5 63.5q0 25 10.5 48.5t28.5 41.5t42.5 29t51.5 11q41 0 64.5 -23.5t23.5 -63.5q0 -25 -10.5 -48.5t-28.5 -41.5t-42.5 -29t-51.5 -11z" />
<glyph unicode="&#x2026;" horiz-adv-x="570" d="M74 24q-4 -17 -12.5 -25t-28.5 -8h-10q-29 0 -29 20q0 5 1 12t5 28q6 33 40 33h11q30 0 30 -20q0 -3 -1 -10.5t-6 -29.5zM264 24q-4 -17 -12.5 -25t-28.5 -8h-10q-29 0 -29 20q0 5 1 12t5 28q6 33 40 33h11q30 0 30 -20q0 -3 -1 -10.5t-6 -29.5zM454 24q-4 -17 -12.5 -25 t-28.5 -8h-10q-29 0 -29 20q0 5 1 12t5 28q6 33 40 33h11q30 0 30 -20q0 -3 -1 -10.5t-6 -29.5z" />
<glyph unicode="&#x2030;" horiz-adv-x="1063" d="M156 -2q-4 -5 -6.5 -6t-8.5 -1h-27q-10 0 -4 8l483 650q5 7 15 7h27q10 0 4 -8zM213 656q45 0 70 -20.5t25 -68.5q0 -20 -3.5 -48.5t-8.5 -53.5q-13 -61 -27 -90t-31 -45q-33 -29 -88 -29q-43 0 -68.5 20.5t-25.5 68.5q0 20 4 48t9 54q11 59 25 89t31 46q33 29 88 29z M207 622q-20 0 -35.5 -7t-27.5 -22.5t-21 -41.5t-16 -64q-4 -23 -8 -48t-4 -44q0 -34 15.5 -47t44.5 -13q21 0 36.5 6.5t28 22t21.5 41.5t17 65q5 23 8 48t3 44q0 32 -14.5 46t-47.5 14zM598 346q45 0 70 -20.5t25 -68.5q0 -20 -3.5 -48.5t-8.5 -53.5q-13 -61 -27 -90 t-31 -45q-33 -29 -88 -29q-43 0 -68.5 20.5t-25.5 68.5q0 20 4 48t9 54q11 59 25 89t31 46q33 29 88 29zM592 312q-20 0 -35.5 -7t-27.5 -22.5t-21 -41.5t-16 -64q-4 -23 -8 -48t-4 -44q0 -34 15.5 -47t44.5 -13q21 0 36.5 6.5t28 22t21.5 41.5t17 65q5 23 8 48t3 44 q0 32 -14.5 46t-47.5 14zM904 346q45 0 70 -20.5t25 -68.5q0 -20 -3.5 -48.5t-8.5 -53.5q-13 -61 -27 -90t-31 -45q-33 -29 -88 -29q-43 0 -68.5 20.5t-25.5 68.5q0 20 4 48t9 54q11 59 25 89t31 46q33 29 88 29zM898 312q-20 0 -35.5 -7t-27.5 -22.5t-21 -41.5t-16 -64 q-4 -23 -8 -48t-4 -44q0 -34 15.5 -47t44.5 -13q21 0 36.5 6.5t28 22t21.5 41.5t17 65q5 23 8 48t3 44q0 32 -14.5 46t-47.5 14z" />
<glyph unicode="&#x2039;" horiz-adv-x="272" d="M84 226l90 -105q5 -7 -2 -12l-14 -12q-7 -5 -12 0l-111 110q-8 8 -7 16l2 12q2 7 4 11t7 8l156 112q7 6 13 -1l13 -16q5 -7 -2 -12z" />
<glyph unicode="&#x203a;" horiz-adv-x="272" d="M165 237l-90 105q-5 6 2 12l14 12q7 5 12 0l111 -110q8 -8 7 -16l-2 -12q-2 -8 -4 -11.5t-7 -7.5l-156 -112q-7 -6 -13 1l-13 16q-5 6 2 12z" />
<glyph unicode="&#x2044;" horiz-adv-x="92" d="M267 651q4 5 11 5h27q11 0 4 -10l-484 -650q-4 -5 -11 -5h-27q-11 0 -4 10z" />
<glyph unicode="&#x20ac;" horiz-adv-x="518" d="M364 615q-43 0 -73 -9t-53 -30q-27 -25 -43.5 -70t-29.5 -114h227q6 0 7.5 -2.5t0.5 -7.5l-4 -23q-1 -9 -11 -9h-228q-3 -16 -7 -39.5t-6 -40.5h226q6 0 7.5 -2.5t0.5 -7.5l-4 -23q-1 -9 -11 -9h-225q-2 -19 -4 -35.5t-2 -30.5q0 -35 6 -60t21.5 -41t43 -23t71.5 -7 q32 0 69 7t68 18q6 2 9.5 1t5.5 -9l4 -15q3 -9 -7 -13q-34 -13 -74 -21t-80 -8q-51 0 -86.5 8.5t-57.5 28t-32 50.5t-10 76q0 16 1.5 35.5t3.5 38.5h-74q-8 0 -7 10l4 23q1 9 11 9h73q2 18 6 39.5t7 40.5h-71q-6 0 -7.5 2.5t-0.5 7.5l4 23q1 9 11 9h72q14 80 34 131.5 t52 80.5q31 29 70.5 40.5t90.5 11.5q48 0 86 -11t67 -28q10 -6 5 -16l-9 -14q-4 -7 -8 -7t-9 3q-31 15 -63 23.5t-68 8.5z" />
<glyph unicode="&#x2113;" horiz-adv-x="442" d="M149 266q37 22 75 47t69.5 56.5t51.5 71.5t20 92q0 39 -16.5 60.5t-49.5 21.5q-39 0 -65.5 -31t-42.5 -110zM130 165q-10 -50 -10 -79q0 -26 12.5 -41t38.5 -15q35 0 70.5 24t70.5 58q7 7 13 1l12 -14q4 -6 -1 -12q-39 -40 -81.5 -68t-89.5 -28q-36 0 -62 20.5t-26 70.5 q0 20 3 41.5t7 39.5l7 34q-17 -9 -33 -17.5t-33 -16.5q-10 -5 -12 3l-6 19q-3 9 6 13q18 8 40.5 19.5t46.5 25.5l47 240q10 49 24 82t33 53t42.5 28t51.5 8q51 0 79.5 -31t28.5 -82q0 -62 -22 -107.5t-59.5 -82.5t-86 -68.5t-100.5 -64.5z" />
<glyph unicode="&#x2116;" horiz-adv-x="839" d="M531 0q-7 0 -5 6l4 21q1 6 7 6h209q6 0 5 -6l-4 -21q-2 -6 -7 -6h-209zM651 123q43 0 63.5 22.5t31.5 77.5q5 24 8 43t3 35q0 29 -15.5 41.5t-45.5 12.5q-21 0 -36.5 -4.5t-26.5 -16t-18.5 -31t-13.5 -48.5q-5 -23 -8 -44.5t-3 -37.5q0 -50 61 -50zM647 89q-97 0 -97 81 q0 14 4 38.5t9 53.5q7 37 18 61.5t27.5 39t39 20.5t52.5 6q97 0 97 -81q0 -14 -3 -38.5t-10 -53.5q-8 -36 -19 -60.5t-27.5 -39t-38.5 -21t-52 -6.5zM524 637q2 10 12 10h24q10 0 7 -11l-117 -606q-3 -17 -10.5 -23.5t-25.5 -6.5h-18q-17 0 -25.5 7t-13.5 24l-176 575h-7 l-116 -596q-3 -10 -12 -10h-24q-10 0 -7 11l117 606q3 17 10.5 23.5t25.5 6.5h18q17 0 25.5 -7t13.5 -24l176 -575h7z" />
<glyph unicode="&#x2122;" horiz-adv-x="643" d="M123 347q-8 0 -7 7l53 260h-80q-6 0 -4 7l4 20q1 6 7 6h199q5 0 4 -6l-4 -20q-2 -7 -7 -7h-81l-53 -260q-1 -7 -8 -7h-23zM464 394q-5 -8 -8 -10.5t-10 -2.5h-29q-11 0 -12 13q-5 48 -10 98.5t-10 110.5h-3q-17 -63 -33.5 -126t-30.5 -123q-1 -7 -8 -7h-21q-8 0 -6 8 q9 38 17.5 72t17.5 67.5t18.5 68t20.5 73.5q2 7 4.5 9t9.5 2h39q10 0 11 -11q2 -28 4 -58t4.5 -58.5t4.5 -53.5t4 -44h4q21 40 48 93.5t59 120.5q3 6 6 8.5t11 2.5h37q13 0 11 -11q-5 -39 -9.5 -73.5t-9.5 -68t-10 -67.5t-11 -72q-1 -4 -3 -6t-8 -2h-22q-7 0 -6 7 q10 60 20 123t18 126h-3q-31 -63 -57 -114t-49 -95z" />
<glyph unicode="&#x212e;" horiz-adv-x="820" d="M195 316q-5 0 -5 -5v-182q0 -10 9 -21q42 -45 100.5 -71t126.5 -26q72 0 133.5 29.5t103.5 79.5h54q-51 -58 -126.5 -93.5t-165.5 -35.5q-77 0 -144.5 26t-117.5 71t-79.5 105.5t-29.5 129.5t29.5 130t79.5 106t117.5 71t144.5 26q76 0 143 -26t117.5 -71t79.5 -106 t29 -130v-7h-599zM658 521q0 12 -10 22q-42 43 -99 68t-123 25q-68 0 -126 -25.5t-100 -70.5q-10 -8 -10 -23v-179q0 -5 5 -5h458q5 0 5 5v183z" />
<glyph unicode="&#x2190;" horiz-adv-x="596" d="M203 101q6 -8 -1 -14l-15 -12q-8 -6 -14 2l-133 166q-8 10 -8 18q0 4 4.5 9.5t15.5 14.5l192 160q7 7 13 0l13 -15q5 -7 -2 -12l-166 -139h424q12 0 10 -11l-4 -19q-1 -9 -14 -9h-427z" />
<glyph unicode="&#x2191;" horiz-adv-x="596" d="M320 513q9 8 16 8q3 0 4.5 -1.5l6.5 -6.5l142 -169q7 -7 -4 -17l-12 -10q-10 -9 -18 0l-107 131l-85 -438q-1 -10 -12 -10h-24q-12 0 -9 11l85 437l-156 -137q-8 -7 -16 0l-16 17q-7 7 1 15z" />
<glyph unicode="&#x2192;" horiz-adv-x="596" d="M368 420q-6 8 1 14l15 12q8 6 14 -2l133 -166q8 -10 8 -18q0 -4 -4.5 -9.5t-15.5 -14.5l-192 -160q-7 -7 -13 0l-13 15q-5 6 2 12l166 139h-424q-12 0 -10 11l4 19q1 9 14 9h427z" />
<glyph unicode="&#x2193;" horiz-adv-x="596" d="M251 8q-9 -8 -16 -8q-4 0 -11 8l-142 169q-7 7 4 17l12 10q10 9 18 0l107 -131l85 438q1 10 12 10h24q12 0 9 -11l-85 -437l156 137q8 7 16 0l16 -17q7 -7 -1 -15z" />
<glyph unicode="&#x2202;" horiz-adv-x="517" d="M250 370q-112 0 -146 -103q-8 -26 -13 -54.5t-5 -56.5q0 -57 26.5 -91t82.5 -34q78 0 127 64t78 201q-28 35 -67.5 54.5t-82.5 19.5zM198 643q26 13 59 20t62 7q71 0 108.5 -44.5t37.5 -148.5q0 -28 -3 -57t-7 -55t-8.5 -48.5l-7.5 -37.5q-32 -143 -91.5 -215t-158.5 -72 q-35 0 -62.5 12t-46 33.5t-28 50.5t-9.5 63q0 38 6 71t13 53q22 69 73.5 101.5t111.5 32.5q57 0 97.5 -21t65.5 -47q14 79 14 134q0 45 -7 75t-21.5 48t-35 25.5t-47.5 7.5q-26 0 -53 -7t-53 -19q-9 -4 -11 5l-6 21q-2 5 0.5 7.5t7.5 4.5z" />
<glyph unicode="&#x220f;" horiz-adv-x="576" d="M372 -85q-2 -6 -4.5 -8.5t-10.5 -2.5h-23q-13 0 -10 11l134 692h-230l-134 -692q-1 -11 -15 -11h-23q-13 0 -10 11l135 692h-94q-12 0 -9 10l5 22q2 8 14 8h507q11 0 9 -10l-5 -22q-2 -8 -14 -8h-88z" />
<glyph unicode="&#x2211;" horiz-adv-x="597" d="M3 -96q-10 0 -12.5 3t-0.5 9l5 24q2 10 5 15.5t12 13.5l322 291q14 13 20.5 20t6.5 13q0 7 -3 13t-14 21l-188 267q-5 8 -8.5 13t-1.5 13l3 15q2 8 6 10t14 2h409q10 0 9 -9l-5 -24q-1 -8 -11 -8h-371l196 -281q10 -15 10 -27q0 -3 -0.5 -9t-2.5 -11q-2 -7 -5.5 -12.5 t-13.5 -13.5l-335 -307h400q10 0 9 -9l-5 -24q-1 -8 -11 -8h-439z" />
<glyph unicode="&#x2212;" horiz-adv-x="512" d="M41 240q-7 0 -6 7l6 29q1 7 8 7h391q7 0 6 -7l-6 -29q-1 -7 -8 -7h-391z" />
<glyph unicode="&#x221a;" horiz-adv-x="561" d="M71 476q1 10 12 10h90q8 0 11.5 -2t4.5 -10l49 -396h3l293 568q4 7 7.5 8.5t10.5 1.5h21q15 0 9 -13l-330 -631q-4 -8 -7 -10t-11 -2h-16q-13 0 -14 12l-61 435h-66q-10 0 -9 9z" />
<glyph unicode="&#x221e;" horiz-adv-x="766" d="M377 281q-31 -30 -57.5 -51t-51.5 -33.5t-49.5 -18t-51.5 -5.5q-63 0 -97.5 31.5t-34.5 91.5q0 36 13.5 67t38 53.5t58 35.5t73.5 13q59 0 97.5 -29.5t71.5 -88.5q60 63 110 90.5t110 27.5q66 0 95.5 -32.5t29.5 -83.5q0 -38 -14 -70t-38.5 -55.5t-57.5 -37t-71 -13.5 q-58 0 -99 28t-75 80zM355 316q-17 31 -33 51.5t-33.5 32.5t-36 17t-40.5 5q-27 0 -50.5 -9t-40.5 -24.5t-27 -38t-10 -49.5q0 -45 24.5 -65t65.5 -20q38 0 81.5 20t99.5 80zM409 313q33 -57 68 -77t80 -20q28 0 51.5 10t40.5 27t26 40.5t9 49.5q0 43 -23.5 61t-62.5 18 q-24 0 -45.5 -5.5t-44 -18.5t-46.5 -33.5t-53 -51.5z" />
<glyph unicode="&#x222b;" horiz-adv-x="327" d="M153 94q-5 -97 -40 -148t-120 -51q-17 0 -35 3t-32 8q-7 2 -4 11l7 20q2 6 5 6t6 -1q10 -3 24.5 -5.5t31.5 -2.5q31 0 51.5 10t33.5 29.5t19 48.5t8 66q2 39 4.5 86t5.5 96.5t6 98t6 91.5q3 51 13 88t29.5 61t49.5 35.5t73 11.5q14 0 31 -2.5t28 -7.5q9 -3 6 -11l-8 -21 q-3 -7 -11 -4t-21.5 5.5t-27.5 2.5q-31 0 -52.5 -10t-35 -28.5t-21 -44.5t-9.5 -59q-3 -45 -6 -95t-5.5 -99.5t-5 -97.5t-4.5 -90z" />
<glyph unicode="&#x2248;" horiz-adv-x="512" d="M317 361q19 -11 35 -15.5t28 -4.5q13 0 24.5 3t22.5 11t23.5 22t27.5 35q5 8 14 4l17 -11q4 -2 5 -4t-2 -7q-37 -56 -68.5 -78.5t-68.5 -22.5q-23 0 -45.5 8.5t-48.5 23.5l-59 35q-18 11 -33 14.5t-27 3.5q-14 0 -25 -3t-22 -11.5t-23.5 -22.5t-27.5 -35q-6 -8 -14 -4 l-17 11q-7 4 -3 11q18 29 34.5 48.5t33 31t34 16t38.5 4.5q23 0 42.5 -6.5t42.5 -20.5zM279 171q19 -11 35 -15.5t28 -4.5q13 0 24.5 3t22.5 11t23.5 22t27.5 35q5 8 14 4l17 -11q4 -2 5 -4t-2 -7q-37 -56 -68.5 -78.5t-68.5 -22.5q-23 0 -45.5 8.5t-48.5 23.5l-59 35 q-18 11 -33 14.5t-27 3.5q-14 0 -25 -3t-22 -11.5t-23.5 -22.5t-27.5 -35q-6 -8 -14 -4l-17 11q-7 4 -3 11q18 29 34.5 48.5t33 31t34 16t38.5 4.5q23 0 42.5 -6.5t42.5 -20.5z" />
<glyph unicode="&#x2260;" horiz-adv-x="512" d="M196 151l-84 -123q-4 -5 -7 -6.5t-8 -1.5h-27q-5 0 -6.5 2.5t1.5 6.5l83 122h-118q-7 0 -6 7l6 29q1 7 8 7h140l92 135h-206q-7 0 -6 7l6 29q1 7 8 7h228l82 119q4 5 7 6.5t8 1.5h27q5 0 6.5 -2.5t-1.5 -6.5l-81 -118h115q7 0 6 -7l-6 -29q-1 -7 -8 -7h-137l-92 -135h203 q7 0 6 -7l-6 -29q-1 -7 -8 -7h-225z" />
<glyph unicode="&#x2264;" horiz-adv-x="512" d="M-3 0q-7 0 -6 7l6 29q1 7 8 7h391q7 0 6 -7l-6 -29q-1 -7 -8 -7h-391zM131 346l232 -146q9 -6 3 -14l-14 -19q-5 -6 -13 -1l-264 164q-8 5 -8 10q0 3 4 19q2 5 3.5 7t6.5 4l330 166q11 5 15 -3l10 -20q4 -9 -6 -13z" />
<glyph unicode="&#x2265;" horiz-adv-x="512" d="M1 0q-7 0 -6 7l6 29q1 7 8 7h391q7 0 6 -7l-6 -29q-1 -7 -8 -7h-391zM393 353l-232 146q-9 6 -3 14l14 19q5 6 13 1l264 -164q8 -5 8 -10q0 -3 -4 -19q-2 -5 -3.5 -7t-6.5 -4l-330 -166q-11 -5 -15 3l-10 20q-4 9 6 13z" />
<glyph unicode="&#x25ca;" horiz-adv-x="512" d="M330 663q5 0 7.5 -1.5t5.5 -9.5l117 -294q4 -9 4 -19q0 -5 -2 -13q-2 -7 -5.5 -12.5t-8.5 -12.5l-227 -299q-5 -8 -9 -9.5t-11 -1.5h-17q-5 0 -7.5 1.5t-5.5 9.5l-117 294q-4 9 -4 19q0 5 2 13q2 7 5.5 12.5t8.5 12.5l227 299q5 8 9 9.5t11 1.5h17zM91 319l106 -276h7 l219 292l-105 276h-7z" />
<glyph unicode="&#x2713;" horiz-adv-x="725" d="M161 45l524 438q10 9 17 -1l11 -14q7 -10 -1 -16l-544 -456q-7 -6 -14 -6q-5 0 -10 5l-143 178q-5 5 -5 8.5t5 8.5l16 14q10 9 18 -2z" />
<glyph unicode="&#xe000;" horiz-adv-x="490" d="M0 490h490v-490h-490v490z" />
<glyph unicode="&#xf8ff;" horiz-adv-x="575" d="M228 199v64h193v63h-193v192h255v-64h-191v-64h191v-191h-255zM164 583v-519h72v-64h-136v647h383v-64h-319z" />
<glyph horiz-adv-x="283" d="M327 735q8 -3 5 -11l-10 -25q-3 -6 -11 -3l-194 70q-9 3 -13.5 8.5t0.5 14.5l11 24q5 10 16 6z" />
<glyph horiz-adv-x="283" d="M314 819q11 4 16 -6l11 -24q5 -9 0.5 -14.5t-13.5 -8.5l-194 -70q-8 -3 -11 3l-10 25q-3 8 5 11z" />
<glyph horiz-adv-x="329" d="M192 813q30 0 30 -25q0 -10 -5 -32q-5 -20 -15 -27.5t-30 -7.5h-12q-31 0 -31 23q0 8 5 33q7 36 43 36h15zM353 813q30 0 30 -25q0 -10 -5 -32q-5 -20 -15 -27.5t-30 -7.5h-12q-31 0 -31 23q0 8 5 33q7 36 43 36h15z" />
<glyph horiz-adv-x="378" d="M413 723q3 -5 3 -7q0 -5 -6 -9l-17 -13q-5 -3 -8 -3q-5 0 -9 6l-84 101h-6l-116 -101q-7 -5 -10 -5t-7 4l-17 17q-4 3 -4 7q0 5 5 9l124 111q10 10 21 10h19q7 0 10.5 -1.5t8.5 -8.5z" />
<glyph horiz-adv-x="422" d="M128 731q-7 5 -2 12q25 40 53 58t54 18q31 0 59 -24l21 -18q20 -17 37 -17t35 15t35 38q6 7 14 1l16 -13q8 -6 1 -15q-25 -35 -50 -55t-55 -20q-32 0 -60 24l-21 18q-11 9 -19 14.5t-19 5.5q-17 0 -32 -12t-34 -39q-7 -9 -15 -4z" />
<glyph horiz-adv-x="327" d="M118 730q-11 0 -8 12l6 27q3 11 12 11h231q11 0 8 -12l-6 -27q-3 -11 -12 -11h-231z" />
<glyph horiz-adv-x="378" d="M264 694q-53 0 -86 27t-42 83q-1 10 8 13l24 5q11 2 13 -8q10 -42 30 -59.5t55 -17.5q37 0 63.5 17.5t49.5 62.5q5 10 15 7l22 -8q6 -2 6.5 -5.5t-1.5 -8.5q-26 -56 -66 -82t-91 -26z" />
<glyph horiz-adv-x="138" d="M147 719q-19 0 -33.5 12t-14.5 36q0 26 17.5 46t47.5 20q19 0 33.5 -12t14.5 -36q0 -26 -17.5 -46t-47.5 -20z" />
<glyph horiz-adv-x="224" d="M101 748q0 46 28.5 73.5t72.5 27.5q39 0 59.5 -21t20.5 -53q0 -26 -8.5 -45t-22.5 -32.5t-31.5 -20t-36.5 -6.5q-38 0 -60 21t-22 56zM197 811q-24 0 -40.5 -15.5t-16.5 -41.5q0 -20 12 -32t34 -12q24 0 40.5 15.5t16.5 41.5q0 20 -12.5 32t-33.5 12z" />
<glyph horiz-adv-x="454" d="M297 837q12 8 21 -3l11 -16q11 -17 -5 -26l-172 -99q-10 -6 -16 3l-11 15q-2 4 -2 7t5 7zM495 837q12 8 21 -3l11 -16q11 -17 -5 -26l-172 -99q-10 -6 -16 3l-11 15q-2 4 -2 7t5 7z" />
<glyph horiz-adv-x="378" d="M134 825q-6 9 3 16l17 13q10 6 17 -3l84 -101h6l116 101q6 5 10 4.5t7 -3.5l17 -17q9 -7 -1 -16l-126 -113q-5 -5 -9 -6.5t-10 -1.5h-19q-7 0 -10.5 1.5t-8.5 8.5z" />
<glyph horiz-adv-x="588" d="M398 28q-2 -11 -8.5 -17t-20.5 -8q-33 -6 -72.5 -9t-82.5 -3q-100 0 -146 29.5t-46 100.5q0 9 1 20.5t2.5 23.5t3.5 23.5t3 19.5q6 37 19.5 63.5t32 44.5t42.5 29t51 16v3q-35 12 -51 38.5t-16 59.5q0 20 3 40.5t8 37.5q17 59 61.5 87.5t128.5 28.5q48 0 85 -7.5 t60 -16.5q9 -3 5 -13l-7 -18q-4 -9 -15 -6q-26 8 -59 14t-72 6q-60 0 -94 -19t-47 -64q-3 -12 -6 -29.5t-3 -33.5q0 -45 26 -66.5t98 -21.5h296q13 0 10 -11l-6 -23q-3 -10 -14 -10h-111zM408 337h-145q-78 0 -124.5 -33t-58.5 -100q-3 -17 -6 -39.5t-3 -37.5q0 -26 8 -44.5 t26 -29.5t48 -16t74 -5q24 0 54 2t52 5q12 2 16 8t7 20z" />
<glyph horiz-adv-x="725" d="M0 0z" />
</font>
</defs>
</svg>
